Ледниковый Период: Квадрология / Ice Age: Quadrilogy (Крис Уэдж, Карлос Салдана) [2002-2012, комедия, приключения, семейный, мультфильм, BDRip][720p][DUB][R.G. GoldenShara]

Ответить на тему
 
Автор Сообщение

francesco ®

Пол: Мужской

Стаж: 5 лет 6 месяцев

Сообщений: 777

Создавать темы 10-Июл-2013 20:23

[Цитировать]

-Ледниковый Период : Квадрология / Ice Age: Quadrilogy
Название: Ледниковый Период: Квадрология
Оригинальное название: Ice Age: Quadrilogy
Год выхода: 2002-2012
Жанр: комедия, приключения, семейный, мультфильм
Продолжительность: 01:21:04 | 01:30:36 | 01:30:36 | 01:28:41
-


Ледниковый период / Ice Age Название: Ледниковый период
Оригинальное название: Ice Age
Год выхода: 2002
Жанр: комедия, приключения, семейный, мультфильм-Режиссер: Крис Уэдж, Карлос Салдана-В ролях: Рэй Романо, Джон Легуизамо, Денис Лири, Горан Вишнич, Джек Блэк, Седрик «Развлекатель», Стивен Рут, Дидрих Бадер, Алан Тьюдик, Лорри Бэгли -О фильме: Леселые и опасные приключения героев. 20 тыс. лет назад. Чтобы избежать приближающегося из-за наступления ледникового периода холода, животные мигрируют на юг. Однако некоторые из них все-таки решают остаться — одинокий, угрюмый мамонт Манфред, а также бесшабашный ленивец Сид.
Случайно эта парочка наталкивается на человеческого детеныша. Они решаются вернуть его людям и отправляются в путешествие. По пути они встречают саблезубого хитрого тигра. И теперь этой веселой компании предстоят забавные приключения!
-Продолжительность: 01:21:11
Перевод: Профессиональный (дублированный) [ Blu-ray]
Выпущено: США -[imdb]http://www.imdb.com/title/tt0268380/[/imdb]  
-Качество: BDRip [720p]
Формат: MKV
Видео: 1 280x688, 3479 Кбит/сек, 23,976 кадр/сек, AVC, x264, 1,85:1, 0.165 Бит[ПикселиКадры], 2pass
Аудио: AC-3, 384 Кбит/сек, 6 канала(ов), 48,0 КГц -
MediaInfo

General
Complete name : D:\разное\Iqe Age.Quadrilogy.2002-2012.x264.BDRip.720p.DUB[francesco]\Ice.Age.2002.x264.BDRip.720p.DUB.mkv
Format : Matroska
File size : 2.19 GiB
Duration : 1h 21mn
Overall bit rate : 3 858 Kbps
Encoded date : UTC 2012-12-23 21:00:51
Writing application : mkvmerge v5.6.0 ('Kenya Kane') built on May 27 2012 16:44:04
Writing library : libebml v1.2.3 + libmatroska v1.3.0
Video
ID : 1
Format : AVC
Format/Info : Advanced Video Codec
Format profile : High@L3.1
Format settings, CABAC : Yes
Format settings, ReFrames : 4 frames
Muxing mode : Container profile=Unknown@3.1
Codec ID : V_MPEG4/ISO/AVC
Duration : 1h 21mn
Bit rate : 3 479 Kbps
Width : 1 280 pixels
Height : 688 pixels
Display aspect ratio : 1.850
Original display aspect ratio : 1.860
Frame rate : 23.976 fps
Color space : YUV
Chroma subsampling : 4:2:0
Bit depth : 8 bits
Scan type : Progressive
Bits/(Pixel*Frame) : 0.165
Stream size : 1.93 GiB (88%)
Title : Ice age
Writing library : x264 core 129 r2230 1cffe9f
Encoding settings : cabac=1 / ref=3 / deblock=1:0:0 / analyse=0x3:0x133 / me=hex / subme=7 / psy=1 / psy_rd=1.00:0.00 / mixed_ref=1 / me_range=16 / chroma_me=1 / trellis=1 / 8x8dct=1 / cqm=0 / deadzone=21,11 / fast_pskip=1 / chroma_qp_offset=-2 / threads=6 / lookahead_threads=1 / sliced_threads=0 / nr=0 / decimate=1 / interlaced=0 / bluray_compat=0 / constrained_intra=0 / bframes=3 / b_pyramid=2 / b_adapt=1 / b_bias=0 / direct=1 / weightb=1 / open_gop=0 / weightp=2 / keyint=240 / keyint_min=23 / scenecut=40 / intra_refresh=0 / rc_lookahead=40 / rc=2pass / mbtree=1 / bitrate=3479 / ratetol=1.0 / qcomp=0.60 / qpmin=10 / qpmax=51 / qpstep=4 / cplxblur=20.0 / qblur=0.5 / ip_ratio=1.40 / aq=1:1.00
Audio
ID : 2
Format : AC-3
Format/Info : Audio Coding 3
Mode extension : CM (complete main)
Codec ID : A_AC3
Duration : 1h 21mn
Bit rate mode : Constant
Bit rate : 384 Kbps
Channel(s) : 6 channels
Channel positions : Front: L C R, Side: L R, LFE
Sampling rate : 48.0 KHz
Stream size : 223 MiB (10%)
Title : DUB
Language : Russian
-
скриншоты:

-
Ледниковый период 2: Глобальное потепление / Ice Age: The Meltdown
Название: Ледниковый период 2: Глобальное потепление
Оригинальное название: Ice Age: The Meltdown
Год выхода: 2006
Жанр: комедия, приключения, семейный, мультфильм-Режиссер: Карлос Салдана-В ролях: Рэй Романо, Джон Легуизамо, Денис Лири, Шонн Уильям Скотт, Джош Пек, Куин Латифа, Уилл Арнетт, Джей Лено, Крис Уэдж, Питер Экерман-О фильме: Ледниковый период закончился, и настала пора Глобального потепления. Снега начинают таять, и вся жизнь в долине ставится под угрозу. В этот раз герои должны объединить все усилия, чтобы предотвратить катастрофу… -Продолжительность: 01:30:36
Перевод: Профессиональный ( дублированный) [Blu-ray]
Выпущено: США -[imdb]http://www.imdb.com/title/tt0438097/[/imdb]  
-Качество: BDRip [720p]
Формат: MKV
Видео: 1 280x688,3072 Кбит/сек, 23,976 кадр/сек, AVC, x264, 1,85:1, 0.145 Бит[ПикселиКадры], 2pass
Аудио: AC-3, 384 Кбит/сек, 6 канала(ов), 48,0 КГц -
MediaInfo

General
Complete name : D:\разное\Iqe Age.Quadrilogy.2002-2012.x264.BDRip.720p.DUB[francesco]\Ice.Age.2.2006.x264.BDRip.720p.DUB.mkv
Format : Matroska
File size : 2.19 GiB
Duration : 1h 31mn
Overall bit rate : 3 439 Kbps
Encoded date : UTC 2012-12-23 21:06:34
Writing application : mkvmerge v5.6.0 ('Kenya Kane') built on May 27 2012 16:44:04
Writing library : libebml v1.2.3 + libmatroska v1.3.0
Video
ID : 1
Format : AVC
Format/Info : Advanced Video Codec
Format profile : High@L3.1
Format settings, CABAC : Yes
Format settings, ReFrames : 4 frames
Format settings, GOP : M=4, N=32
Muxing mode : Container profile=Unknown@3.1
Codec ID : V_MPEG4/ISO/AVC
Duration : 1h 31mn
Bit rate : 3 072 Kbps
Width : 1 280 pixels
Height : 688 pixels
Display aspect ratio : 1.850
Original display aspect ratio : 1.860
Frame rate : 23.976 fps
Color space : YUV
Chroma subsampling : 4:2:0
Bit depth : 8 bits
Scan type : Progressive
Bits/(Pixel*Frame) : 0.145
Stream size : 1.90 GiB (87%)
Title : Age 2
Writing library : x264 core 125 r2200 999b753
Encoding settings : cabac=1 / ref=3 / deblock=1:0:0 / analyse=0x3:0x133 / me=hex / subme=7 / psy=1 / psy_rd=1.00:0.00 / mixed_ref=1 / me_range=16 / chroma_me=1 / trellis=1 / 8x8dct=1 / cqm=0 / deadzone=21,11 / fast_pskip=1 / chroma_qp_offset=-2 / threads=6 / lookahead_threads=1 / sliced_threads=0 / nr=0 / decimate=1 / interlaced=0 / bluray_compat=0 / constrained_intra=0 / bframes=3 / b_pyramid=2 / b_adapt=1 / b_bias=0 / direct=1 / weightb=1 / open_gop=0 / weightp=2 / keyint=240 / keyint_min=23 / scenecut=40 / intra_refresh=0 / rc_lookahead=40 / rc=2pass / mbtree=1 / bitrate=3072 / ratetol=1.0 / qcomp=0.60 / qpmin=0 / qpmax=69 / qpstep=4 / cplxblur=20.0 / qblur=0.5 / ip_ratio=1.40 / aq=1:1.00
Audio
ID : 2
Format : AC-3
Format/Info : Audio Coding 3
Mode extension : CM (complete main)
Codec ID : A_AC3
Duration : 1h 31mn
Bit rate mode : Constant
Bit rate : 384 Kbps
Channel(s) : 6 channels
Channel positions : Front: L C R, Side: L R, LFE
Sampling rate : 48.0 KHz
Stream size : 250 MiB (11%)
Title : DUB
Language : Russian
-
скриншоты:

-
Ледниковый период 3: Эра динозавров / Ice Age: Dawn of the Dinosaurs
Название: Ледниковый период 3: Эра динозавров
Оригинальное название: Ice Age: Dawn of the Dinosaurs
Год выхода: 2009
Жанр: комедия, приключения, семейный, мультфильм-Режиссер: Карлос Салдана, Майк Трумейер-В ролях: Джон Легуизамо, Квин Латифа, Дэнис Лири, Саймон Пегг, Джош Пек, Рэй Романо, Шонн Уильям Скотт, Карен Дишер, Крис Ведж, Юнис Чо, Кристиан Пайкс, Харрисон Фан, Мэйл Флэнеган, Джейсон Фриччион, Билл Хадер, Келли Китон, Джои Кинг, Аллегра Легуизамо, Лукас Легуизамо, Клеа Льюис, Джейн Линч-О фильме: К событиям «Ледникового периода 3» жизнь главных героев мультфильма потерпела некоторые изменения. Мамонты Манфред и Элли ожидают появление на свет своего детёныша; саблезубый тигр Диего впал в раздумье о том, не стал ли он слишком «мягкотелым» в компании своих друзей; ленивец Сид, бредя желанием создать собственное племя, решился украсть несколько яиц динозавра. Отправившись спасать Сида, друзья попадают в таинственный растительный мир, скрытый под толщами льда, где они сталкиваются с динозаврами и агрессивной окружающей средой, а также знакомятся с охотником на динозавров — лаской по имени Бак.
Крысобелка Скрэт (который вновь случайным образом стал виной глобальной проблемы, открыв путь в мир динозавров) по-прежнему гоняется за своим орехом, но на этот раз у него появился конкурент — крысобелка Скрэтти, однако, одновременно с одержимой борьбой за орех, эти двое влюбляются друг в друга.
-Продолжительность: 01:34:01
Перевод: Профессиональный ( дублированный) [ Blu-ray]
Выпущено: США -[imdb]http://www.imdb.com/title/tt1080016/[/imdb]  
-Качество: BDRip [720p]
Формат: MKV
Видео: 1 280x688, 2945 Кбит/сек, 23,976 кадр/сек, AVC, x264, 1,85:1, 0.139 Бит[ПикселиКадры], 2pass
Аудио: AC-3, 384 Кбит/сек, 6 канала(ов), 48,0 КГц -
MediaInfo

General
Complete name : D:\разное\Iqe Age.Quadrilogy.2002-2012.x264.BDRip.720p.DUB[francesco]\Ice.Age.3.2009.x264.BDRip.720p.DUB.mkv
Format : Matroska
File size : 2.19 GiB
Duration : 1h 34mn
Overall bit rate : 3 330 Kbps
Encoded date : UTC 2012-12-23 21:11:55
Writing application : mkvmerge v5.6.0 ('Kenya Kane') built on May 27 2012 16:44:04
Writing library : libebml v1.2.3 + libmatroska v1.3.0
Video
ID : 1
Format : AVC
Format/Info : Advanced Video Codec
Format profile : High@L3.1
Format settings, CABAC : Yes
Format settings, ReFrames : 4 frames
Format settings, GOP : M=4, N=32
Muxing mode : Container profile=Unknown@3.1
Codec ID : V_MPEG4/ISO/AVC
Duration : 1h 34mn
Bit rate : 2 945 Kbps
Width : 1 280 pixels
Height : 688 pixels
Display aspect ratio : 1.850
Original display aspect ratio : 1.860
Frame rate : 23.976 fps
Color space : YUV
Chroma subsampling : 4:2:0
Bit depth : 8 bits
Scan type : Progressive
Bits/(Pixel*Frame) : 0.139
Stream size : 1.89 GiB (86%)
Title : Age 3
Writing library : x264 core 125 r2200 999b753
Encoding settings : cabac=1 / ref=3 / deblock=1:0:0 / analyse=0x3:0x133 / me=hex / subme=7 / psy=1 / psy_rd=1.00:0.00 / mixed_ref=1 / me_range=16 / chroma_me=1 / trellis=1 / 8x8dct=1 / cqm=0 / deadzone=21,11 / fast_pskip=1 / chroma_qp_offset=-2 / threads=6 / lookahead_threads=1 / sliced_threads=0 / nr=0 / decimate=1 / interlaced=0 / bluray_compat=0 / constrained_intra=0 / bframes=3 / b_pyramid=2 / b_adapt=1 / b_bias=0 / direct=1 / weightb=1 / open_gop=0 / weightp=2 / keyint=240 / keyint_min=23 / scenecut=40 / intra_refresh=0 / rc_lookahead=40 / rc=2pass / mbtree=1 / bitrate=2945 / ratetol=1.0 / qcomp=0.60 / qpmin=0 / qpmax=69 / qpstep=4 / cplxblur=20.0 / qblur=0.5 / ip_ratio=1.40 / aq=1:1.00
Audio
ID : 2
Format : AC-3
Format/Info : Audio Coding 3
Mode extension : CM (complete main)
Codec ID : A_AC3
Duration : 1h 34mn
Bit rate mode : Constant
Bit rate : 384 Kbps
Channel(s) : 6 channels
Channel positions : Front: L C R, Side: L R, LFE
Sampling rate : 48.0 KHz
Stream size : 258 MiB (12%)
Title : DUB
Language : Russian
-
скриншоты:

- Ледниковый период 4: Континентальный дрейф / Ice Age: Continental Drift Название: Ледниковый период 4: Континентальный дрейф
Оригинальное название: Ice Age: Continental Drift
Год выхода: 2012
Жанр: мультфильм, комедия, приключения, семейный-Режиссер: Карлос Салдана, Майк Трумейер-В ролях: Рэй Романо, Джон Легуизамо, Куин Латифа, Дэнис Лири, Джош Пек, Питер Динклэйдж, Кеке Палмер, Дженнифер Лопез, Ник Фрост, Азиз Ансари -О фильме: После приключений под землей прошло семь лет. Случился дрейф континентов. Главные герои мультфильма, отделённые от стада, вынуждены использовать айсберг в качестве плота. Они пересекают океан и попадают в неизвестные им ранее земли с экзотическими животными и пиратами, враждебно настроенными к ним. Скрэту удаётся получить свой жёлудь, но он перемещается в новые для него земли. -Продолжительность: 01:28:41
Перевод: Профессиональный ( дублированный) [ Blu-ray]
Выпущено: США -[imdb]http://www.imdb.com/title/tt1667889/[/imdb]  
-Качество: BDRip [720p]
Формат: MKV
Видео: 1 280x528, 3121 Кбит/сек, 23,976 кадр/сек, AVC, x264, 2,40:1, 0.193 Бит/[Пиксели*Кадры], 2pass
Аудио:AC-3, 448 Кбит/сек, 6 канала(ов), 48,0 КГц-
MediaInfo

General
Complete name : D:\разное\Iqe Age.Quadrilogy.2002-2012.x264.BDRip.720p.DUB[francesco]\Ice.Age.Continental.Drift.2012.x264.BDRip.720p.DUB.mkv
Format : Matroska
File size : 2.19 GiB
Duration : 1h 27mn
Overall bit rate : 3 570 Kbps
Encoded date : UTC 2012-10-30 02:40:54
Writing application : mkvmerge v5.5.0 ('Healer') built on Apr 6 2012 21:43:24
Writing library : libebml v1.2.3 + libmatroska v1.3.0
Video
ID : 1
Format : AVC
Format/Info : Advanced Video Codec
Format profile : High@L3.1
Format settings, CABAC : Yes
Format settings, ReFrames : 4 frames
Format settings, GOP : M=4, N=16
Muxing mode : Container profile=Unknown@3.1
Codec ID : V_MPEG4/ISO/AVC
Duration : 1h 27mn
Bit rate : 3 121 Kbps
Width : 1 280 pixels
Height : 528 pixels
Display aspect ratio : 2.40:1
Original display aspect ratio : 2.40:1
Frame rate : 23.976 fps
Color space : YUV
Chroma subsampling : 4:2:0
Bit depth : 8 bits
Scan type : Progressive
Bits/(Pixel*Frame) : 0.193
Stream size : 1.87 GiB (85%)
Title : Ледниковый период 4: Континентальный дрейф
Writing library : x264 core 128 r2216 198a7ea
Encoding settings : cabac=1 / ref=4 / deblock=1:0:0 / analyse=0x3:0x133 / me=hex / subme=7 / psy=1 / psy_rd=1.00:0.00 / mixed_ref=1 / me_range=16 / chroma_me=1 / trellis=1 / 8x8dct=1 / cqm=0 / deadzone=21,11 / fast_pskip=1 / chroma_qp_offset=-2 / threads=12 / lookahead_threads=2 / sliced_threads=0 / nr=0 / decimate=1 / interlaced=0 / bluray_compat=0 / constrained_intra=0 / bframes=3 / b_pyramid=2 / b_adapt=1 / b_bias=0 / direct=1 / weightb=1 / open_gop=0 / weightp=2 / keyint=240 / keyint_min=23 / scenecut=40 / intra_refresh=0 / rc_lookahead=40 / rc=2pass / mbtree=1 / bitrate=3121 / ratetol=1.0 / qcomp=0.60 / qpmin=10 / qpmax=51 / qpstep=4 / cplxblur=20.0 / qblur=0.5 / ip_ratio=1.40 / aq=1:1.00
Audio
ID : 2
Format : AC-3
Format/Info : Audio Coding 3
Mode extension : CM (complete main)
Codec ID : A_AC3
Duration : 1h 27mn
Bit rate mode : Constant
Bit rate : 448 Kbps
Channel(s) : 6 channels
Channel positions : Front: L C R, Side: L R, LFE
Sampling rate : 48.0 KHz
Stream size : 281 MiB (13%)
Title : Дублированное [лицензия]
Language : Russian
-
скриншоты:

-


Последний раз редактировалось: francesco (2014-04-12 17:45), всего редактировалось 2 раз(а)
[Профиль] [ЛС]

ma4o_1998_98

Пол: Мужской

Стаж: 5 лет 7 месяцев

Сообщений: 356

Создавать темы 11-Июл-2013 00:32 (спустя 4 часа)

[Цитировать]

за такой труд стоит поставить спасибо)))
[Профиль] [ЛС]

Сухроб.

Пол: Мужской

Стаж: 7 лет 6 месяцев

Сообщений: 13953

Создавать темы 11-Июл-2013 00:40 (спустя 8 минут)

[Цитировать]

Поставил проверено, добавь формат от 4 части...
[Профиль] [ЛС]

francesco ®

Пол: Мужской

Стаж: 5 лет 6 месяцев

Сообщений: 777

Создавать темы 11-Июл-2013 12:37 (спустя 11 часов)

[Цитировать]

за такой труд стоит поставить спасибо)))
*THUMBS UP*
Поставил проверено, добавь формат от 4 части...
done
[Профиль] [ЛС]

Adiba

Пол: Женский

Стаж: 7 лет 6 месяцев

Сообщений: 1868

Откуда: СССР

Создавать темы 16-Июл-2013 07:53 (спустя 4 дня)

[Цитировать]

не качает ((
[Профиль] [ЛС]

Adiba

Пол: Женский

Стаж: 7 лет 6 месяцев

Сообщений: 1868

Откуда: СССР

Создавать темы 19-Июл-2013 14:39 (спустя 3 дня)

[Цитировать]

дай скорости!!! по 6кб качаю ((
[Профиль] [ЛС]

francesco ®

Пол: Мужской

Стаж: 5 лет 6 месяцев

Сообщений: 777

Создавать темы 19-Июл-2013 17:26 (спустя 2 часа 46 минут)

[Цитировать]

скоро! ночью останься в личерах я раздаю
[Профиль] [ЛС]

gourcouf

Пол: Мужской

Стаж: 4 года

Сообщений: 14

Создавать темы 14-Ноя-2013 19:18 (спустя 3 месяца 26 дней)

[Цитировать]

francesco все отл ))) вот почему то не качает
[Профиль] [ЛС]

Mithas204

Пол: Мужской

Стаж: 7 лет 11 месяцев

Сообщений: 13072

Откуда: Душанбе, Курган-Тюбе

Создавать темы 12-Апр-2014 14:38 (спустя 4 месяца 27 дней)

[Цитировать]

Начинаю качать.
[Профиль] [ЛС]

francesco ®

Пол: Мужской

Стаж: 5 лет 6 месяцев

Сообщений: 777

Создавать темы 12-Апр-2014 17:49 (спустя 3 часа)

[Цитировать]

Начинаю качать.
*OK*
[Профиль] [ЛС]

Mithas204

Пол: Мужской

Стаж: 7 лет 11 месяцев

Сообщений: 13072

Откуда: Душанбе, Курган-Тюбе

Создавать темы 16-Апр-2014 14:58 (спустя 3 дня)

[Цитировать]

Начинаю качать.
*OK*
и где скорость?!
добавлено спустя 1 минуту:
Почему не раздаешь?!
[Профиль] [ЛС]

francesco ®

Пол: Мужской

Стаж: 5 лет 6 месяцев

Сообщений: 777

Создавать темы 16-Апр-2014 17:04 (спустя 2 часа 5 минут)

[Цитировать]

Почему не раздаешь?!
Я всегда на раздаче ! не знаю в чем проблема !
[Профиль] [ЛС]

Mithas204

Пол: Мужской

Стаж: 7 лет 11 месяцев

Сообщений: 13072

Откуда: Душанбе, Курган-Тюбе

Создавать темы 16-Апр-2014 17:13 (спустя 9 минут)

[Цитировать]

Почему не раздаешь?!
Я всегда на раздаче ! не знаю в чем проблема !
Я знаю. Так как Spike качает право на убийство :D
[Профиль] [ЛС]

francesco ®

Пол: Мужской

Стаж: 5 лет 6 месяцев

Сообщений: 777

Создавать темы 16-Апр-2014 17:21 (спустя 7 минут)

[Цитировать]

Почему не раздаешь?!
Я всегда на раздаче ! не знаю в чем проблема !
Я знаю. Так как Spike качает право на убийство :D
*THUMBS UP*
[Профиль] [ЛС]

Mithas204

Пол: Мужской

Стаж: 7 лет 11 месяцев

Сообщений: 13072

Откуда: Душанбе, Курган-Тюбе

Создавать темы 16-Апр-2014 20:47 (спустя 3 часа)

[Цитировать]

francesco дай скорость тут уже 3 человека качают.
[Профиль] [ЛС]

francesco ®

Пол: Мужской

Стаж: 5 лет 6 месяцев

Сообщений: 777

Создавать темы 20-Апр-2014 11:39 (спустя 3 дня)

[Цитировать]

Mithas204
остановил все раздачи кроме этой но все равно не идёт
[Профиль] [ЛС]
Показать сообщения:    
Ответить на тему

Текущее время: 18-Ноя 18:56

Часовой пояс: UTC + 3



Вы не можете начинать темы
Вы не можете отвечать на сообщения
Вы не можете редактировать свои сообщения
Вы не можете удалять свои сообщения
Вы не можете голосовать в опросах
Вы не можете прикреплять файлы к сообщениям
Вы не можете скачивать файлы