Полтора шпиона / Central Intelligence (2016) HDRip

Ответить на тему
 
Автор Сообщение

banzay ®

Пол: Мужской

Стаж: 8 лет 6 месяцев

Сообщений: 1127

Создавать темы 15-Май-2017 13:29

[Цитировать]

--Полтора шпиона / Central Intelligence (2016) HDRip- Производство: США
Жанр: Боевик, Комедия, Криминал-Режиссер: Роусон Маршалл Тёрбер
Продюсер: Питер Принципато, Скотт Стубер, Пол Янг
Актеры: Дуэйн Джонсон, Кевин Харт, Эми Райан, Даниэль Николет, Джейсон Бейтман, Аарон Пол, Райан Хансен, Тим Гриффин, Тимоти Джон Смит, Сион Келепи.-Описание:
От лайка в соцсети до спасения мира — один шаг. Сегодня ты френдишь бывшего одноклассника, а завтра — он тащит тебя под пули. Кто ж знал, что заядлый любитель пончиков превратится в похожего на скалу супершпиона.- 
Релиз от: [NeuTraL Farid]
Продолжительность: 01:36:28
Качество видео: HDRip
Перевод: Таджикский. Любительский многоголосый [by NeuTraL Farid]-Video: MPEG4 Video (H264) 720x304 23.976fps 4050kbps [V: Video Media Handler [eng] (h264 high L4.0, yuv420p, 720x304, 4050 kb/s)]
Audio: AAC 48000Hz stereo 128kbps [A: Sound Media Handler [eng] (aac lc, 48000 Hz, stereo, 128 kb/s)]-
Mediainfo:
General
Complete name : D:\banzay\Cartoons\Video\Poltora_shpiona.mp4
Format : MPEG-4
Format profile : Base Media / Version 2
Codec ID : mp42 (mp42/isom)
File size : 2.82 GiB
Duration : 1 h 36 min
Overall bit rate mode : Variable
Overall bit rate : 4 183 kb/s
Encoded date : UTC 2017-05-12 11:59:10
Tagged date : UTC 2017-05-12 11:59:10
Video
ID : 2
Format : AVC
Format/Info : Advanced Video Codec
Format profile : High@L4
Format settings, CABAC : Yes
Format settings, ReFrames : 2 frames
Codec ID : avc1
Codec ID/Info : Advanced Video Coding
Duration : 1 h 36 min
Source duration : 1 h 36 min
Bit rate mode : Variable
Bit rate : 4 050 kb/s
Maximum bit rate : 16.0 Mb/s
Width : 720 pixels
Height : 304 pixels
Display aspect ratio : 2.35:1
Frame rate mode : Constant
Frame rate : 23.976 (24000/1001) FPS
Color space : YUV
Chroma subsampling : 4:2:0
Bit depth : 8 bits
Scan type : Progressive
Bits/(Pixel*Frame) : 0.772
Stream size : 2.73 GiB (97%)
Source stream size : 2.73 GiB (97%)
Language : English
Encoded date : UTC 2017-05-12 11:59:10
Tagged date : UTC 2017-05-12 11:59:10
Audio
ID : 1
Format : AAC
Format/Info : Advanced Audio Codec
Format profile : LC
Codec ID : 40
Duration : 1 h 36 min
Bit rate mode : Constant
Bit rate : 128 kb/s
Channel(s) : 2 channels
Channel positions : Front: L R
Sampling rate : 48.0 kHz
Frame rate : 46.875 FPS (1024 spf)
Compression mode : Lossy
Stream size : 88.3 MiB (3%)
Language : English
Encoded date : UTC 2017-05-12 11:59:10
Tagged date : UTC 2017-05-12 11:59:10
-
Скрины
-
[Профиль] [ЛС]
Показать сообщения:    
Ответить на тему

Текущее время: 26-Май 12:21

Часовой пояс: UTC + 3



Вы не можете начинать темы
Вы не можете отвечать на сообщения
Вы не можете редактировать свои сообщения
Вы не можете удалять свои сообщения
Вы не можете голосовать в опросах
Вы не можете прикреплять файлы к сообщениям
Вы не можете скачивать файлы