Конг: Остров черепа / Kong: Skull Island (Джордан Вот-Робертс) [2017 г., фантастика, фэнтези, боевик, приключения, WEBRip 1080p | L]

Ответить на тему
 
Автор Сообщение

sayid ®

Пол: Мужской

Стаж: 5 лет 6 месяцев

Сообщений: 939

Создавать темы 10-Апр-2017 12:46

[Цитировать]

Конг: Остров черепа / Kong: Skull IslandСлоган: «Пробуждение Кинг-Конга»- Название: Конг: Остров черепа
Оригинальное название: Kong: Skull Island
Год: 2017
Страна: США, Вьетнам
Режиссер: Джордан Вот-Робертс
В главных ролях: Том Хиддлстон, Сэмюэл Л. Джексон, Джон Гудман, Бри Ларсон, Цзин Тянь, Тоби Кеббелл, Джон Ортис, Кори Хоукинс, Джейсон Митчелл, Ши Уигхэм
Роли дублировали: Мария Борисова
Сценарий: Дэн Гилрой, Макс Боренштейн, Дерек Коннолли
Продюсер: Дэбби Босси, Edward Cheng, Jennifer Conroy
Оператор: Ларри Фон
Композитор: Генри Джекман
Жанр: фантастика, фэнтези, боевик, приключения-Бюджет: $190 000 000
Премьера (мир): 8 марта 2017
Премьера (РФ): 9 марта 2017, «Каро-Премьер»3D
Время: 118 мин. / 01:58
Рейтинг КиноПоиска: 6.855 (1019)
Рейтинг IMDB: 7.90 (1003)-Описание: На неизвестный остров в Тихом океане попадает команда ученых, военных и искателей приключений. Они вторгаются во владения могучего Конга и тем самым развязывают сражение между человеком и природой. Очень скоро исследовательская миссия превращается в игру на выживание, ее участники вынуждены буквально прорубать себе путь к спасению.-Студия: Legendary Pictures, Warner Bros. Pictures
Продолжительность: 01:59:04
Перевод: Любительский (многоголосый) ["Синема УС"]-Кодек: AVC
Качество: WEBRip 1080p
Формат: MKV
Видео: 1920x800, ~ 5000 Кбит/сек, 29.970 fps
Аудио: AC3, 448 kb/s, 2 ch, 48KHz-
MediaInfo
General
Format                         : Matroska
Format version                 : Version 2
File size                      : 4.29 GiB
Duration                       : 1 h 59 min
Overall bit rate mode          : Variable
Overall bit rate               : 5 161 kb/s
Encoded date                   : UTC 2017-04-08 18:32:55
Writing application            : mkvmerge v4.0.0 ('The Stars were mine') сборка от Jun  6 2010 16:18:42
Writing library                : libebml v1.0.0 + libmatroska v1.0.0
Video
ID                             : 1
Format                         : AVC
Format/Info                    : Advanced Video Codec
Format profile                 : High@L4.1
Format settings, CABAC         : Yes
Format settings, ReFrames      : 5 frames
Codec ID                       : V_MPEG4/ISO/AVC
Duration                       : 1 h 59 min
Bit rate mode                  : Variable
Bit rate                       : 4 611 kb/s
Maximum bit rate               : 5 200 kb/s
Width                          : 1 920 pixels
Height                         : 800 pixels
Display aspect ratio           : 2.40:1
Frame rate mode                : Constant
Frame rate                     : 29.970 (30000/1001) FPS
Standard                       : Component
Color space                    : YUV
Chroma subsampling             : 4:2:0
Bit depth                      : 8 bits
Scan type                      : Progressive
Bits/(Pixel*Frame)             : 0.100
Stream size                    : 3.83 GiB (89%)
Default                        : No
Forced                         : No
Color range                    : Limited
Color primaries                : BT.709
Transfer characteristics       : BT.709
Matrix coefficients            : BT.709
Audio
ID                             : 2
Format                         : AC-3
Format/Info                    : Audio Coding 3
Format settings, Endianness    : Big
Codec ID                       : A_AC3
Duration                       : 1 h 59 min
Bit rate mode                  : Constant
Bit rate                       : 448 kb/s
Channel(s)                     : 2 channels
Channel positions              : Front: L R
Sampling rate                  : 48.0 kHz
Frame rate                     : 31.250 FPS (1536 spf)
Bit depth                      : 16 bits
Compression mode               : Lossy
Stream size                    : 382 MiB (9%)
Language                       : Russian
Service kind                   : Complete Main
Default                        : Yes
Forced                         : No
Скриншоты:


Последний раз редактировалось: sayid (Вчера, в 12:27), всего редактировалось 1 раз
[Профиль] [ЛС]

sayid ®

Пол: Мужской

Стаж: 5 лет 6 месяцев

Сообщений: 939

Создавать темы 10-Апр-2017 12:48 (спустя 1 минута)

[Цитировать]

P.S. Люди, помните!
Выражение благодарности авторам продлевает жизнь раздачам и стимулирует появление новых!
[Профиль] [ЛС]

farchikjanee

Пол: Мужской

Стаж: 2 года 7 месяцев

Сообщений: 312

Создавать темы 10-Апр-2017 13:08 (спустя 20 минут)

[Цитировать]

ждем раздачи)
[Профиль] [ЛС]

vavko

Пол: Мужской

Стаж: 4 года 8 месяцев

Сообщений: 1021

Создавать темы 11-Апр-2017 06:24 (спустя 17 часов)

[Цитировать]

кто-нибудь встаните на раздачу....
[Профиль] [ЛС]

Root_tj

Пол: Мужской

Стаж: 2 года 10 месяцев

Сообщений: 3889

Откуда: Khujand

Создавать темы 11-Апр-2017 06:53 (спустя 28 минут)

[Цитировать]

качество и звука ждем, спасибо за раздачу
[Профиль] [ЛС]

sayid ®

Пол: Мужской

Стаж: 5 лет 6 месяцев

Сообщений: 939

Создавать темы 11-Апр-2017 07:25 (спустя 31 минута)

[Цитировать]

Я на раздаче!
[Профиль] [ЛС]

sashalilya

Пол: Мужской

Стаж: 8 лет 4 месяца

Сообщений: 25011

Откуда: Отсюда

Создавать темы 24-Апр-2017 18:39 (спустя 13 дней)

[Цитировать]

sayid, медиаинфо добавь пожалуйста
[Профиль] [ЛС]
Показать сообщения:    
Ответить на тему

Текущее время: 26-Апр 20:44

Часовой пояс: UTC + 3



Вы не можете начинать темы
Вы не можете отвечать на сообщения
Вы не можете редактировать свои сообщения
Вы не можете удалять свои сообщения
Вы не можете голосовать в опросах
Вы не можете прикреплять файлы к сообщениям
Вы не можете скачивать файлы