Умар аль-Фарук. Умар ибн аль-Хаттаб / Farouk Omar / Серии: 1-30 из 30 (Хатем Али) [2012, Исторический, Драма, HDRip 720p] MVO (Рисалат)

Страницы :  1, 2  След.

Ответить на тему
 
Автор Сообщение

Mithas204 ®

Пол: Мужской

Стаж: 7 лет 5 месяцев

Сообщений: 12733

Откуда: Душанбе, Курган-Тюбе

Создавать темы 26-Май-2015 19:41

[Цитировать]

Год выпуска: 2012
Страна: Катар
Жанр: Исторический, Драма
Продолжительность: 00:41:00
Продолжительность 30-ая серия: 01:25:25
Перевод: Профессиональный (многоголосый закадровый), Рисалат--Режиссёр: Хатем Али--В ролях: Samer Ismail, Ghassan Massoud и другие--Описание: Умар аль-Фарук – Умар ибн аль-Хаттаб
Фильм основанный на реальных событиях, повествует об истории жизни второго праведного халифа Умара ибн аль-Хаттаба (Умар аль-Фарук), одного из самых ярых последователей пророка и первых исламских государей.
Аравия, VII н.э. В борьбе с немногочисленными последователями новой религии, ислама, могущественное племя курайшитов хочет заручиться поддержкой местного богатыря - бесстрашного Умара ибн аль-Хаттаба, который по их замыслу должен убить Пророка Мухаммада и покончить с новой и монотеистической верой арабов раз и навсегда. Он же(Умар) вплоть до 6-го года от начала пророчества был явным противником Ислама и мусульман. Но со временем пересмотрел взгляды на Ислам под влиянием своей сестры, которая дала ему прочесть Коран, и изъявил желание встретиться с Пророком Мухаммадом. После этого события Умар стал одним из ближайших сподвижников Пророка. А после смерти Абу Бакра ас-Сиддика – первого исламского халифа – Мединский Халифат возглавил Умар ибн аль-Хаттаб, став вторым праведным халифом.
При его правлении исламские армии победоносно повергали войска Византийской Империи и Сасанидской Персии, значительно расширяя пределы халифата и включая в него всё новые территории. Мировое исламское государство крепло, становилось сильнее и величественнее, простираясь на многие земли и утверждая Ислам.--Доп. информация:
Самый дорогой сериал арабского телевидения. Спецэффекты этого сериала сделаны в Голливуде. Захватывающий арабский сериал о жизни сподвижника Умара ибн аль-Хаттаба, который является одним из самых важных фигур в истории Ислама.--Качество: WEBRip-AVC
Формат: MP4
Видео кодек: AVC
Аудио кодек: AAC
Видео: 1280x720 (16:9), 25.000 fps, AVC ~2250 kbps, 0,078 Bit/Pixel
Аудио: Русский, AAC, 44.1 KHz, 2 ch, 160.00 Kbps
Аудио: Арабский, AAC, 44.1 KHz, 2 ch, 160.00 Kbps
Субтитры: отсутствуют
MediaInfo
Video
ID : 1
Format : AVC
Format/Info : Advanced Video Codec
Format profile : High@L4.1
Format settings, CABAC : Yes
Format settings, ReFrames : 4 frames
Codec ID : avc1
Codec ID/Info : Advanced Video Coding
Duration : 43mn 45s
Bit rate : 2 250 Kbps
Width : 1 280 pixels
Height : 544 pixels
Display aspect ratio : 2.35:1
Frame rate mode : Constant
Frame rate : 25.000 fps
Color space : YUV
Chroma subsampling : 4:2:0
Bit depth : 8 bits
Scan type : Progressive
Bits/(Pixel*Frame) : 0.129
Stream size : 705 MiB (87%)
Writing library : x264 core 130 r2273 b3065e6
Encoding settings : cabac=1 / ref=3 / deblock=1:0:0 / analyse=0x3:0x113 / me=hex / subme=7 / psy=1 / psy_rd=1.00:0.00 / mixed_ref=1 / me_range=16 / chroma_me=1 / trellis=1 / 8x8dct=1 / cqm=0 / deadzone=21,11 / fast_pskip=1 / chroma_qp_offset=-2 / threads=12 / lookahead_threads=2 / sliced_threads=0 / nr=0 / decimate=1 / interlaced=0 / bluray_compat=0 / constrained_intra=0 / bframes=3 / b_pyramid=2 / b_adapt=1 / b_bias=0 / direct=1 / weightb=1 / open_gop=0 / weightp=2 / keyint=250 / keyint_min=25 / scenecut=40 / intra_refresh=0 / rc_lookahead=40 / rc=2pass / mbtree=1 / bitrate=2250 / ratetol=1.0 / qcomp=0.60 / qpmin=0 / qpmax=69 / qpstep=4 / cplxblur=20.0 / qblur=0.5 / vbv_maxrate=62500 / vbv_bufsize=78125 / nal_hrd=none / ip_ratio=1.40 / aq=1:1.00
Color range : Limited
Color primaries : BT.709
Transfer characteristics : BT.709
Matrix coefficients : BT.709
Audio #1
ID : 2
Format : AAC
Format/Info : Advanced Audio Codec
Format profile : LC
Codec ID : 40
Duration : 43mn 45s
Bit rate mode : Constant
Bit rate : 160 Kbps
Channel(s) : 2 channels
Channel positions : Front: L R
Sampling rate : 48.0 KHz
Frame rate : 46.875 fps (1024 spf)
Compression mode : Lossy
Stream size : 50.1 MiB (6%)
Language : Russian
Default : Yes
Alternate group : 1
Audio #2
ID : 3
Format : AAC
Format/Info : Advanced Audio Codec
Format profile : LC
Codec ID : 40
Duration : 43mn 45s
Bit rate mode : Constant
Bit rate : 160 Kbps
Channel(s) : 2 channels
Channel positions : Front: L R
Sampling rate : 48.0 KHz
Frame rate : 46.875 fps (1024 spf)
Compression mode : Lossy
Stream size : 50.1 MiB (6%)
Language : Arabic
Default : No
Alternate group : 1
Скриншоты




Последний раз редактировалось: Mithas204 (2016-03-19 21:07), всего редактировалось 3 раз(а)
[Профиль] [ЛС]

Root_tj

Пол: Мужской

Стаж: 2 года 11 месяцев

Сообщений: 4660

Откуда: Khujand

Создавать темы 26-Май-2015 19:52 (спустя 11 минут)

[Цитировать]

спасибо завтра закачаю
[Профиль] [ЛС]

sayid

Пол: Мужской

Стаж: 5 лет 7 месяцев

Сообщений: 965

Создавать темы 26-Май-2015 20:07 (спустя 14 минут)

[Цитировать]

Низкий поклон!
[Профиль] [ЛС]

Mithas204 ®

Пол: Мужской

Стаж: 7 лет 5 месяцев

Сообщений: 12733

Откуда: Душанбе, Курган-Тюбе

Создавать темы 27-Май-2015 06:40 (спустя 10 часов)

[Цитировать]

готово
[Профиль] [ЛС]

T@JIK_@GENT

Пол: Мужской

Стаж: 7 лет 9 месяцев

Сообщений: 1540

Откуда: DUSHANBE (ДУШАНБЕ)

Создавать темы 27-Май-2015 08:07 (спустя 1 час 26 минут)

[Цитировать]

Mithas204
Есть фильм Халида ибн Валида?
[Профиль] [ЛС]

Mithas204 ®

Пол: Мужской

Стаж: 7 лет 5 месяцев

Сообщений: 12733

Откуда: Душанбе, Курган-Тюбе

Создавать темы 27-Май-2015 10:08 (спустя 2 часа 1 минута)

[Цитировать]

Mithas204
Есть фильм Халида ибн Валида?
год выпуска фильм или сериал?!
[Профиль] [ЛС]

Mithas204 ®

Пол: Мужской

Стаж: 7 лет 5 месяцев

Сообщений: 12733

Откуда: Душанбе, Курган-Тюбе

Создавать темы 19-Мар-2016 21:02 (спустя 9 месяцев 23 дня)

[Цитировать]

Раздача обновлена
[Профиль] [ЛС]

HamiSit

Пол: Мужской

Стаж: 3 года 5 месяцев

Сообщений: 168

Создавать темы 19-Мар-2016 21:05 (спустя 2 минуты)

[Цитировать]

Mithas204
))) спасибо огромное
[Профиль] [ЛС]

Mithas204 ®

Пол: Мужской

Стаж: 7 лет 5 месяцев

Сообщений: 12733

Откуда: Душанбе, Курган-Тюбе

Создавать темы 19-Мар-2016 21:06 (спустя 41 секунда)

[Цитировать]

Аудио: Русский, AAC, 44.1 KHz, 2 ch, 160.00 Kbps
Аудио: Арабский, AAC, 44.1 KHz, 2 ch, 160.00 Kbps
добавлено спустя:
Mithas204
))) спасибо огромное
на здоровье.
[Профиль] [ЛС]

Root_tj

Пол: Мужской

Стаж: 2 года 11 месяцев

Сообщений: 4660

Откуда: Khujand

Создавать темы 20-Мар-2016 05:13 (спустя 8 часов)

[Цитировать]

спасибо!!!
[Профиль] [ЛС]

Акмал777

Пол: Мужской

Стаж: 5 лет 8 месяцев

Сообщений: 88

Откуда: Таджикистан,Душанбе

Создавать темы 15-Апр-2016 16:57 (спустя 26 дней)

[Цитировать]

Mithas204
Большое спасибо и дай Аллах тебе всех благ *BRAVO* *THUMBS UP* *HAPPY*
[Профиль] [ЛС]

Obamasm

Пол: Мужской

Стаж: 3 года 9 месяцев

Сообщений: 115

Создавать темы 03-Июн-2016 00:00 (спустя 1 месяц 17 дней)

[Цитировать]

Ребят у кого можно на жесткий закинуть весь сериал? У меня wimax нереально качать. Заранее спасибо.
[Профиль] [ЛС]

Mithas204 ®

Пол: Мужской

Стаж: 7 лет 5 месяцев

Сообщений: 12733

Откуда: Душанбе, Курган-Тюбе

Создавать темы 03-Июн-2016 05:23 (спустя 5 часов)

[Цитировать]

Ребят у кого можно на жесткий закинуть весь сериал? У меня wimax нереально качать. Заранее спасибо.
у меня в лс напиши тел.
[Профиль] [ЛС]

aryan-prince

Пол: Мужской

Стаж: 5 лет 4 месяца

Сообщений: 13

Создавать темы 05-Сен-2016 17:09 (спустя 3 месяца 2 дня)

[Цитировать]

кто нибудь откройте раздачу!!!
[Профиль] [ЛС]

Azizmurod2010

Пол: Мужской

Стаж: 5 лет 8 месяцев

Сообщений: 202

Создавать темы 07-Сен-2016 20:19 (спустя 2 дня 3 часа)

[Цитировать]

Mithas204
the best!
spasibo!
Khalid bin Al-Waleed please
добавлено спустя 1 минуту:
почему не качает?
[Профиль] [ЛС]

Mithas204 ®

Пол: Мужской

Стаж: 7 лет 5 месяцев

Сообщений: 12733

Откуда: Душанбе, Курган-Тюбе

Создавать темы 08-Сен-2016 06:26 (спустя 10 часов)

[Цитировать]

Mithas204
the best!
spasibo!
Khalid bin Al-Waleed please
добавлено спустя 1 минуту:
почему не качает?
как смогу встану на раздачу
[Профиль] [ЛС]

78

Пол: Мужской

Стаж: 6 лет 7 месяцев

Сообщений: 184

Создавать темы 08-Сен-2016 10:33 (спустя 4 часа)

[Цитировать]

Сидер, ты где ? дай скачать! спасибо!
[Профиль] [ЛС]

Root_tj

Пол: Мужской

Стаж: 2 года 11 месяцев

Сообщений: 4660

Откуда: Khujand

Создавать темы 16-Сен-2016 11:43 (спустя 8 дней)

[Цитировать]

восстановите раздачу!!!
добавлено спустя 3 часа 28 минут:
чета все равно не качает ака?
[Профиль] [ЛС]

mkoma

Пол: Мужской

Стаж: 8 лет 3 месяца

Сообщений: 1259

Откуда: спасибо eastera моему провайдеру

Создавать темы 16-Сен-2016 15:15 (спустя 3 часа)

[Цитировать]

дайте скачать
[Профиль] [ЛС]

aryan-prince

Пол: Мужской

Стаж: 5 лет 4 месяца

Сообщений: 13

Создавать темы 16-Сен-2016 17:04 (спустя 1 час 48 минут)

[Цитировать]

пожалуйста встаньте на раздачу кто нибудь
[Профиль] [ЛС]
Показать сообщения:    
Ответить на тему

Текущее время: 26-Май 12:23

Часовой пояс: UTC + 3



Вы не можете начинать темы
Вы не можете отвечать на сообщения
Вы не можете редактировать свои сообщения
Вы не можете удалять свои сообщения
Вы не можете голосовать в опросах
Вы не можете прикреплять файлы к сообщениям
Вы не можете скачивать файлы