(Instrumental, Acoustic, Flamenco) ДиДюЛя - Студийные альбомы (9 CD) - 2000 - 2013, FLAC (image + .cue), lossless

Ответить на тему
 
Автор Сообщение

russtam1979 ®

Пол: Мужской

Стаж: 3 года 1 месяц

Сообщений: 1226

Создавать темы 16-Апр-2015 07:07

[Цитировать]

-ДиДюЛя - Студийные альбомы (9 CD)
Страна: Belarus
Страна-производитель диска: Russia,Ukraine
Лейбл: Квадро-Диск,United Music Group
Жанр: Instrumental, Acoustic, Flamenco
Год выпуска: 2000 - 2013
Формат: FLAC (image + .cue)
Битрейт аудио: lossless
Продолжительность: 08:00:07
О исполнители:
ДиДюЛя - гитарист-виртуоз, композитор и лидер одноименной инструментальной группы, который играет музыку в стилевом диапазоне от нео-фламенко до рока и фолка. ДиДюЛя является самым известным инструменталистом в России. Группа "ДиДюЛя" входит в пятерку самых гастролирующих коллективов России, она дает около ста пятидесяти живых масштабных аншлаговых шоу в год с обширной географией выступлений на территории России и зарубежья.
ДиДюЛя работал с известными российскими и мировыми звездами шоу-бизнеса, кино и спорта: Пласидо Доминго, Брайаном Адамсом, Джо Линн Тернером, Крейгом Дэвидом, Авраамом Руссо, Дмитрием Маликовым, Кристиной Орбакайте, шоу-балетом Аллы Духовой "Тодес", снялся в фильме Андрея Кончаловского. Выступая под музыку ДиДюЛи, на престижных соревнованиях побеждали Ирина Слуцкая, Ирина Чащина, Алексей Ягудин, Ксения Макарова. За саундтрек к фильму "Кочегар"Алексея Балабанова в 2010 году ДиДюЛя получил премию кинокритиков"Белый слон" в номинации "Лучшая музыка к фильму".
Инструментальная группа ДиДюЛи играет живую музыку - именно это производит потрясающий эффект на зрителя. В течение более двух часов атмосфера в зале то раскаляется от бешеной энергетики, передающейся со сцены, то погружает слушателя в состояние спокойствия и умиротворения под обволакивающие звуки гитарных баллад. Концерт ДиДюЛи - красивая музыкальная легенда, понятная зрителям всех возрастов любого континента.
Фламенко (2000)
01. Фламенко (2:50)
02. Айседора (4:12)
03. Водопад (4:24)
04. Жасмин (3:35)
05. Румба (5:49)
06. Испания (2:57)
07. Море (2:51)
08. Ритмо (4:52)
09. Русская (4:40)
10. Бездна (3:35)
11. Фанданго (3:08)
12. День (6:56)
13. Посвящение (2:23)
Log EAC
Exact Audio Copy V0.99 prebeta 5 from 4. May 2009
Отчёт EAC об извлечении, выполненном 12. августа 2011, 18:00
Дидюля / Фламенко (переиздание)
Дисковод: ASUS DVD-E616A2 Adapter: 0 ID: 0
Режим чтения : Достоверность
Использование точного потока : Да
Отключение кэша аудио : Да
Использование указателей C2 : Нет
Коррекция смещения при чтении : 6
Способность читать области Lead-in и Lead-out : Нет
Заполнение пропущенных сэмплов тишиной : Да
Удаление блоков с тишиной в начале и конце : Нет
При вычислениях CRC использовались нулевые сэмплы : Да
Интерфейс : Встроенный Win32-интерфейс для Win NT/2000
Обработка зазоров : Добавлено к предыдущему треку
Выходной формат : Пользовательский кодировщик
Выбранный битрейт : 1024 kBit/s
Качество : Высокий
Добавление ID3-тэга : Нет
Утилита сжатия : C:\Program Files\FLAC\flac.exe
Дополнительные параметры : -8 -V -T "ARTIST=%a" -T "TITLE=%t" -T "ALBUM=%g" -T "DATE=%y" -T "TRACKNUMBER=%n" -T "GENRE=%m" -T "COMMENT=EAC FLAC -8" %s
TOC извлечённого CD
Трек | Старт | Длительность | Начальный сектор | Конечный сектор
---------------------------------------------------------------------
1 | 0:00.00 | 2:49.74 | 0 | 12748
2 | 2:49.74 | 4:11.63 | 12749 | 31636
3 | 7:01.62 | 4:23.56 | 31637 | 51417
4 | 11:25.43 | 3:34.55 | 51418 | 67522
5 | 15:00.23 | 5:49.15 | 67523 | 93712
6 | 20:49.38 | 2:57.08 | 93713 | 106995
7 | 23:46.46 | 2:50.55 | 106996 | 119800
8 | 26:37.26 | 4:52.01 | 119801 | 141701
9 | 31:29.27 | 4:39.63 | 141702 | 162689
10 | 36:09.15 | 3:35.20 | 162690 | 178834
11 | 39:44.35 | 3:08.20 | 178835 | 192954
12 | 42:52.55 | 6:56.12 | 192955 | 224166
13 | 49:48.67 | 2:23.19 | 224167 | 234910
14 | 54:44.11 | 16:17.04 | 246311 | 319589
Трек 1
Имя файла D:\Моя музыка\Новая папка\01 - Фламенко.wav
Длина предзазора 0:00:02.00
Пиковый уровень 97.9 %
Качество трека 99.9 %
CRC теста F3E32461
CRC копии F3E32461
Точное извлечение (достоверность 1) [D8B8AC29]
Копирование... OK
Трек 2
Имя файла D:\Моя музыка\Новая папка\02 - Айседора.wav
Длина предзазора 0:00:02.00
Пиковый уровень 97.9 %
Качество трека 100.0 %
CRC теста 260E811C
CRC копии 260E811C
Точное извлечение (достоверность 1) [7E7B7974]
Копирование... OK
Трек 3
Имя файла D:\Моя музыка\Новая папка\03 - Водопад.wav
Длина предзазора 0:00:02.00
Пиковый уровень 97.9 %
Качество трека 100.0 %
CRC теста A50C7DD2
CRC копии A50C7DD2
Точное извлечение (достоверность 1) [4D2D8816]
Копирование... OK
Трек 4
Имя файла D:\Моя музыка\Новая папка\04 - Жасмин.wav
Длина предзазора 0:00:02.00
Пиковый уровень 97.9 %
Качество трека 100.0 %
CRC теста 72F240EA
CRC копии 72F240EA
Точное извлечение (достоверность 1) [E191043F]
Копирование... OK
Трек 5
Имя файла D:\Моя музыка\Новая папка\05 - Румба.wav
Длина предзазора 0:00:02.00
Пиковый уровень 97.9 %
Качество трека 100.0 %
CRC теста 3C774ABF
CRC копии 3C774ABF
Точное извлечение (достоверность 1) [4BB38018]
Копирование... OK
Трек 6
Имя файла D:\Моя музыка\Новая папка\06 - Испания.wav
Длина предзазора 0:00:02.00
Пиковый уровень 97.9 %
Качество трека 100.0 %
CRC теста CB2C79D3
CRC копии CB2C79D3
Точное извлечение (достоверность 1) [305D2C6F]
Копирование... OK
Трек 7
Имя файла D:\Моя музыка\Новая папка\07 - Море.wav
Длина предзазора 0:00:02.00
Пиковый уровень 97.9 %
Качество трека 100.0 %
CRC теста 478FDC74
CRC копии 478FDC74
Точное извлечение (достоверность 1) [2ED48497]
Копирование... OK
Трек 8
Имя файла D:\Моя музыка\Новая папка\08 - Ритмо.wav
Длина предзазора 0:00:02.00
Пиковый уровень 97.9 %
Качество трека 100.0 %
CRC теста 3720533A
CRC копии 3720533A
Точное извлечение (достоверность 1) [2841E744]
Копирование... OK
Трек 9
Имя файла D:\Моя музыка\Новая папка\09 - Русская.wav
Длина предзазора 0:00:02.00
Пиковый уровень 97.9 %
Качество трека 100.0 %
CRC теста EB8F53A3
CRC копии EB8F53A3
Точное извлечение (достоверность 1) [A7AEDD08]
Копирование... OK
Трек 10
Имя файла D:\Моя музыка\Новая папка\10 - Бездна.wav
Длина предзазора 0:00:02.00
Пиковый уровень 97.9 %
Качество трека 100.0 %
CRC теста DABFC204
CRC копии DABFC204
Точное извлечение (достоверность 1) [F64BFDDE]
Копирование... OK
Трек 11
Имя файла D:\Моя музыка\Новая папка\11 - Фанданго.wav
Длина предзазора 0:00:02.00
Пиковый уровень 97.9 %
Качество трека 99.9 %
CRC теста 30071CC8
CRC копии 30071CC8
Точное извлечение (достоверность 1) [CACBD6BB]
Копирование... OK
Трек 12
Имя файла D:\Моя музыка\Новая папка\12 - День.wav
Длина предзазора 0:00:02.00
Пиковый уровень 97.9 %
Качество трека 100.0 %
CRC теста E4E63328
CRC копии E4E63328
Точное извлечение (достоверность 1) [71CB0A64]
Копирование... OK
Трек 13
Имя файла D:\Моя музыка\Новая папка\13 - Посвящение.wav
Длина предзазора 0:00:02.00
Пиковый уровень 97.9 %
Качество трека 100.0 %
CRC теста C401C191
CRC копии C401C191
Точное извлечение (достоверность 1) [F8624CAC]
Копирование... OK
Все треки извлечены точно
Ошибок не произошло
Конец отчёта
Дорога в Багдад (2002)
01. Arabika (5:35)
02. На побережье (3:05)
03. Лэйла (4:37)
04. Ветер (3:48)
05. День рождения (4:09)
06. По течению (5:12)
07. Чаппа (4:48)
08. Гром (3:43)
09. Fashion (6:51)
10. Полет на Меркурий (5:41)
11. Мираж (7:01)
12. Вверх (5:54)
13. Дорога в Багдад (5:24)
14. Кофе утром (4:35)
15. Мои печали и радости (4:54)
Log EAC
Exact Audio Copy V0.99 prebeta 5 from 4. May 2009
Отчёт EAC об извлечении, выполненном 12. августа 2011, 19:22
Дидюля / Дорога в Багдад
Дисковод: ASUS DVD-E616A2 Adapter: 0 ID: 0
Режим чтения : Достоверность
Использование точного потока : Да
Отключение кэша аудио : Да
Использование указателей C2 : Нет
Коррекция смещения при чтении : 6
Способность читать области Lead-in и Lead-out : Нет
Заполнение пропущенных сэмплов тишиной : Да
Удаление блоков с тишиной в начале и конце : Нет
При вычислениях CRC использовались нулевые сэмплы : Да
Интерфейс : Встроенный Win32-интерфейс для Win NT/2000
Обработка зазоров : Добавлено к предыдущему треку
Выходной формат : Пользовательский кодировщик
Выбранный битрейт : 1024 kBit/s
Качество : Высокий
Добавление ID3-тэга : Нет
Утилита сжатия : C:\Program Files\FLAC\flac.exe
Дополнительные параметры : -8 -V -T "ARTIST=%a" -T "TITLE=%t" -T "ALBUM=%g" -T "DATE=%y" -T "TRACKNUMBER=%n" -T "GENRE=%m" -T "COMMENT=EAC FLAC -8" %s
TOC извлечённого CD
Трек | Старт | Длительность | Начальный сектор | Конечный сектор
---------------------------------------------------------------------
1 | 0:00.00 | 5:35.36 | 0 | 25160
2 | 5:35.36 | 3:04.40 | 25161 | 39000
3 | 8:40.01 | 4:36.59 | 39001 | 59759
4 | 13:16.60 | 3:48.35 | 59760 | 76894
5 | 17:05.20 | 4:09.02 | 76895 | 95571
6 | 21:14.22 | 5:12.05 | 95572 | 118976
7 | 26:26.27 | 4:48.03 | 118977 | 140579
8 | 31:14.30 | 3:42.52 | 140580 | 157281
9 | 34:57.07 | 6:51.07 | 157282 | 188113
10 | 41:48.14 | 5:41.21 | 188114 | 213709
11 | 47:29.35 | 7:01.26 | 213710 | 245310
12 | 54:30.61 | 5:54.10 | 245311 | 271870
13 | 60:24.71 | 5:23.68 | 271871 | 296163
14 | 65:48.64 | 4:35.10 | 296164 | 316798
15 | 70:23.74 | 4:54.00 | 316799 | 338848
16 | 77:49.74 | 1:52.47 | 350249 | 358695
Трек 1
Имя файла D:\Моя музыка\Новая папка\01 - Arabika.wav
Длина предзазора 0:00:02.00
Пиковый уровень 97.9 %
Качество трека 100.0 %
CRC теста 0265CB0B
CRC копии 0265CB0B
Точное извлечение (достоверность 1) [BD5EEDA2]
Копирование... OK
Трек 2
Имя файла D:\Моя музыка\Новая папка\02 - На побережье.wav
Пиковый уровень 97.9 %
Качество трека 100.0 %
CRC теста 501C4B51
CRC копии 501C4B51
Точное извлечение (достоверность 1) [2865B94E]
Копирование... OK
Трек 3
Имя файла D:\Моя музыка\Новая папка\03 - Лэйла.wav
Пиковый уровень 97.9 %
Качество трека 100.0 %
CRC теста 7BC5EBD7
CRC копии 7BC5EBD7
Точное извлечение (достоверность 1) [2B65C92B]
Копирование... OK
Трек 4
Имя файла D:\Моя музыка\Новая папка\04 - Ветер.wav
Пиковый уровень 97.9 %
Качество трека 99.9 %
CRC теста 044634C3
CRC копии 044634C3
Точное извлечение (достоверность 1) [CE979F8B]
Копирование... OK
Трек 5
Имя файла D:\Моя музыка\Новая папка\05 - День рождения.wav
Пиковый уровень 97.9 %
Качество трека 99.9 %
CRC теста 75D4790E
CRC копии 75D4790E
Точное извлечение (достоверность 1) [2DF1DF8B]
Копирование... OK
Трек 6
Имя файла D:\Моя музыка\Новая папка\06 - По течению.wav
Пиковый уровень 97.9 %
Качество трека 100.0 %
CRC теста 2A947903
CRC копии 2A947903
Точное извлечение (достоверность 1) [AF988108]
Копирование... OK
Трек 7
Имя файла D:\Моя музыка\Новая папка\07 - Чаппа.wav
Пиковый уровень 97.9 %
Качество трека 100.0 %
CRC теста 0F971C86
CRC копии 0F971C86
Точное извлечение (достоверность 1) [C480E794]
Копирование... OK
Трек 8
Имя файла D:\Моя музыка\Новая папка\08 - Гром.wav
Пиковый уровень 97.9 %
Качество трека 100.0 %
CRC теста DD67832C
CRC копии DD67832C
Точное извлечение (достоверность 1) [1A4BF4EC]
Копирование... OK
Трек 9
Имя файла D:\Моя музыка\Новая папка\09 - Fashion.wav
Пиковый уровень 97.9 %
Качество трека 99.9 %
CRC теста 53405E69
CRC копии 53405E69
Точное извлечение (достоверность 1) [A4477B70]
Копирование... OK
Трек 10
Имя файла D:\Моя музыка\Новая папка\10 - Полет на Меркурий.wav
Пиковый уровень 97.9 %
Качество трека 100.0 %
CRC теста E0D7F2CA
CRC копии E0D7F2CA
Точное извлечение (достоверность 1) [1112622C]
Копирование... OK
Трек 11
Имя файла D:\Моя музыка\Новая папка\11 - Мираж.wav
Пиковый уровень 97.9 %
Качество трека 100.0 %
CRC теста ACDAE1A1
CRC копии ACDAE1A1
Точное извлечение (достоверность 1) [C4F4EA28]
Копирование... OK
Трек 12
Имя файла D:\Моя музыка\Новая папка\12 - Вверх.wav
Пиковый уровень 97.9 %
Качество трека 100.0 %
CRC теста 500FA198
CRC копии 500FA198
Точное извлечение (достоверность 1) [A96095B3]
Копирование... OK
Трек 13
Имя файла D:\Моя музыка\Новая папка\13 - Дорога в Багдад.wav
Пиковый уровень 97.9 %
Качество трека 100.0 %
CRC теста 9F76B61B
CRC копии 9F76B61B
Точное извлечение (достоверность 1) [19F44855]
Копирование... OK
Трек 14
Имя файла D:\Моя музыка\Новая папка\14 - Кофе утром.wav
Пиковый уровень 97.9 %
Качество трека 100.0 %
CRC теста 9117E9EE
CRC копии 9117E9EE
Точное извлечение (достоверность 1) [8859DBD6]
Копирование... OK
Трек 15
Имя файла D:\Моя музыка\Новая папка\15 - Мои печали и радости.wav
Пиковый уровень 95.7 %
Качество трека 100.0 %
CRC теста D397C984
CRC копии D397C984
Точное извлечение (достоверность 1) [8A62C16F]
Копирование... OK
Все треки извлечены точно
Ошибок не произошло
Конец отчёта
Легенда (2004)
01. Мечта (3:23)
02. Сердце обжигая (5:44)
03. Дорогой дерзких (3:29)
04. Голос сфер (4:47)
05. Парящий в облаках (7:11)
06. Кометы хвост (4:36)
07. Великий храм (6:03)
08. Легенда (3:19)
09. Уличные cтрасти (3:46)
10. Осень-Август (4:08)
11. Путь домой (4:38)
Log EAC
Exact Audio Copy V0.99 prebeta 5 from 4. May 2009
EAC extraction logfile from 2. September 2011, 16:30
ДиДюЛя / Легенда
Used drive : ASUS DVD-E616A2 Adapter: 0 ID: 0
Read mode : Secure
Utilize accurate stream : Yes
Defeat audio cache : Yes
Make use of C2 pointers : No
Read offset correction : 6
Overread into Lead-In and Lead-Out : No
Fill up missing offset samples with silence : Yes
Delete leading and trailing silent blocks : No
Null samples used in CRC calculations : Yes
Used interface : Native Win32 interface for Win NT & 2000
Gap handling : Appended to previous track
Used output format : User Defined Encoder
Selected bitrate : 1024 kBit/s
Quality : High
Add ID3 tag : No
Command line compressor : C:\Program Files\FLAC\flac.exe
Additional command line options : -8 -V -T "ARTIST=%a" -T "TITLE=%t" -T "ALBUM=%g" -T "DATE=%y" -T "TRACKNUMBER=%n" -T "GENRE=%m" -T "COMMENT=EAC FLAC -8" %s
TOC of the extracted CD
Track | Start | Length | Start sector | End sector
---------------------------------------------------------
1 | 0:00.00 | 3:23.36 | 0 | 15260
2 | 3:23.36 | 5:44.37 | 15261 | 41097
3 | 9:07.73 | 3:28.74 | 41098 | 56771
4 | 12:36.72 | 4:46.66 | 56772 | 78287
5 | 17:23.63 | 7:10.74 | 78288 | 110611
6 | 24:34.62 | 4:35.74 | 110612 | 131310
7 | 29:10.61 | 6:03.09 | 131311 | 158544
8 | 35:13.70 | 3:18.64 | 158545 | 173458
9 | 38:32.59 | 3:45.59 | 173459 | 190392
10 | 42:18.43 | 4:08.34 | 190393 | 209026
11 | 46:27.02 | 4:37.74 | 209027 | 229875
Track 1
Filename D:\Моя музыка\Новая папка\01 - Мечта.wav
Pre-gap length 0:00:02.00
Peak level 100.0 %
Track quality 100.0 %
Test CRC AE8F68AD
Copy CRC AE8F68AD
Cannot be verified as accurate (confidence 4) [91EEAD31], AccurateRip returned [8BB077A2]
Copy OK
Track 2
Filename D:\Моя музыка\Новая папка\02 - Сердце обжигая.wav
Pre-gap length 0:00:02.00
Peak level 100.0 %
Track quality 100.0 %
Test CRC 0F09A88E
Copy CRC 0F09A88E
Cannot be verified as accurate (confidence 3) [4D526E42], AccurateRip returned [F4E79A22]
Copy OK
Track 3
Filename D:\Моя музыка\Новая папка\03 - Дорогой дерзких.wav
Pre-gap length 0:00:02.00
Peak level 100.0 %
Track quality 100.0 %
Test CRC 48131F3D
Copy CRC 48131F3D
Cannot be verified as accurate (confidence 3) [865D258E], AccurateRip returned [7C4FA22E]
Copy OK
Track 4
Filename D:\Моя музыка\Новая папка\04 - Голос сфер.wav
Pre-gap length 0:00:02.00
Peak level 100.0 %
Track quality 99.9 %
Test CRC 4E0B3CB4
Copy CRC 4E0B3CB4
Cannot be verified as accurate (confidence 3) [89B3C314], AccurateRip returned [1F84BFC4]
Copy OK
Track 5
Filename D:\Моя музыка\Новая папка\05 - Парящий в облаках.wav
Pre-gap length 0:00:02.00
Peak level 100.0 %
Track quality 100.0 %
Test CRC 69924D72
Copy CRC 69924D72
Cannot be verified as accurate (confidence 3) [946831C9], AccurateRip returned [F265FAD9]
Copy OK
Track 6
Filename D:\Моя музыка\Новая папка\06 - Кометы хвост.wav
Pre-gap length 0:00:02.00
Peak level 100.0 %
Track quality 100.0 %
Test CRC DF008F76
Copy CRC DF008F76
Cannot be verified as accurate (confidence 4) [70462270], AccurateRip returned [8C91128C]
Copy OK
Track 7
Filename D:\Моя музыка\Новая папка\07 - Великий храм.wav
Pre-gap length 0:00:02.00
Peak level 100.0 %
Track quality 100.0 %
Test CRC 168E0A93
Copy CRC 168E0A93
Cannot be verified as accurate (confidence 3) [D7DDC9EE], AccurateRip returned [D084A3AE]
Copy OK
Track 8
Filename D:\Моя музыка\Новая папка\08 - Легенда.wav
Pre-gap length 0:00:02.00
Peak level 100.0 %
Track quality 100.0 %
Test CRC CC315A06
Copy CRC CC315A06
Cannot be verified as accurate (confidence 3) [A585BECA], AccurateRip returned [8429567A]
Copy OK
Track 9
Filename D:\Моя музыка\Новая папка\09 - Уличные cтрасти.wav
Pre-gap length 0:00:02.00
Peak level 100.0 %
Track quality 99.9 %
Test CRC 51222BDF
Copy CRC 51222BDF
Cannot be verified as accurate (confidence 3) [FDD9C881], AccurateRip returned [39A127A1]
Copy OK
Track 10
Filename D:\Моя музыка\Новая папка\10 - Осень-Август.wav
Pre-gap length 0:00:02.00
Peak level 100.0 %
Track quality 100.0 %
Test CRC 8927BED6
Copy CRC 8927BED6
Cannot be verified as accurate (confidence 3) [6E5074C3], AccurateRip returned [FBC06B93]
Copy OK
Track 11
Filename D:\Моя музыка\Новая папка\11 - Путь домой.wav
Pre-gap length 0:00:02.00
Peak level 100.0 %
Track quality 100.0 %
Test CRC 17277E77
Copy CRC 17277E77
Cannot be verified as accurate (confidence 3) [2E5CC750], AccurateRip returned [0EBC76C0]
Copy OK
No tracks could be verified as accurate
You may have a different pressing from the one(s) in the database
No errors occurred
End of status report
Цветные сны (2006)
01. Цветные сны (3:38)
02. Посылка из Румынии (4:25)
03. Таэлия (3:17)
04. Далекий город (4:41)
05. Танец круга (4:43)
06. Вираж (5:08)
07. На пороге (4:44)
08. Дым или вода (3:21)
09. Шумный праздник (6:18)
10. Семь поцелуев (3:58)
Log EAC
Exact Audio Copy V0.99 prebeta 5 from 4. May 2009
EAC extraction logfile from 5. September 2011, 20:28
ДиДюЛя / Цветные сны
Used drive : ASUS DVD-E616A2 Adapter: 0 ID: 0
Read mode : Secure
Utilize accurate stream : Yes
Defeat audio cache : Yes
Make use of C2 pointers : No
Read offset correction : 6
Overread into Lead-In and Lead-Out : No
Fill up missing offset samples with silence : Yes
Delete leading and trailing silent blocks : No
Null samples used in CRC calculations : Yes
Used interface : Native Win32 interface for Win NT & 2000
Gap handling : Appended to previous track
Used output format : User Defined Encoder
Selected bitrate : 1024 kBit/s
Quality : High
Add ID3 tag : No
Command line compressor : C:\Program Files\FLAC\flac.exe
Additional command line options : -8 -V -T "ARTIST=%a" -T "TITLE=%t" -T "ALBUM=%g" -T "DATE=%y" -T "TRACKNUMBER=%n" -T "GENRE=%m" -T "COMMENT=EAC FLAC -8" %s
TOC of the extracted CD
Track | Start | Length | Start sector | End sector
---------------------------------------------------------
1 | 0:00.00 | 3:38.13 | 0 | 16362
2 | 3:38.13 | 4:25.10 | 16363 | 36247
3 | 8:03.23 | 3:16.61 | 36248 | 51008
4 | 11:20.09 | 4:40.74 | 51009 | 72082
5 | 16:01.08 | 4:42.66 | 72083 | 93298
6 | 20:43.74 | 5:08.05 | 93299 | 116403
7 | 25:52.04 | 4:44.00 | 116404 | 137703
8 | 30:36.04 | 3:20.46 | 137704 | 152749
9 | 33:56.50 | 6:18.02 | 152750 | 181101
10 | 40:14.52 | 3:57.45 | 181102 | 198921
Track 1
Filename D:\Моя музыка\Новая папка\01 - Цветные сны.wav
Pre-gap length 0:00:02.00
Peak level 99.9 %
Track quality 99.9 %
Test CRC E34642A2
Copy CRC E34642A2
Accurately ripped (confidence 3) [8C63D5B5]
Copy OK
Track 2
Filename D:\Моя музыка\Новая папка\02 - Посылка из Румынии.wav
Pre-gap length 0:00:02.00
Peak level 99.8 %
Track quality 100.0 %
Test CRC 84CE59B2
Copy CRC 84CE59B2
Accurately ripped (confidence 3) [A03B8537]
Copy OK
Track 3
Filename D:\Моя музыка\Новая папка\03 - Таэлия.wav
Pre-gap length 0:00:02.00
Peak level 99.9 %
Track quality 100.0 %
Test CRC 9B9F313E
Copy CRC 9B9F313E
Accurately ripped (confidence 3) [1E277681]
Copy OK
Track 4
Filename D:\Моя музыка\Новая папка\04 - Далекий город.wav
Pre-gap length 0:00:02.00
Peak level 99.9 %
Track quality 100.0 %
Test CRC 319A662D
Copy CRC 319A662D
Accurately ripped (confidence 3) [D98BF698]
Copy OK
Track 5
Filename D:\Моя музыка\Новая папка\05 - Танец круга.wav
Pre-gap length 0:00:02.00
Peak level 99.9 %
Track quality 100.0 %
Test CRC ABAA9661
Copy CRC ABAA9661
Accurately ripped (confidence 3) [FDB282F7]
Copy OK
Track 6
Filename D:\Моя музыка\Новая папка\06 - Вираж.wav
Pre-gap length 0:00:02.00
Peak level 99.9 %
Track quality 100.0 %
Test CRC D5EAEB29
Copy CRC D5EAEB29
Accurately ripped (confidence 3) [DEC59C29]
Copy OK
Track 7
Filename D:\Моя музыка\Новая папка\07 - На пороге.wav
Pre-gap length 0:00:02.00
Peak level 99.9 %
Track quality 100.0 %
Test CRC 653B8F4E
Copy CRC 653B8F4E
Accurately ripped (confidence 3) [44CC552C]
Copy OK
Track 8
Filename D:\Моя музыка\Новая папка\08 - Дым или вода.wav
Pre-gap length 0:00:02.00
Peak level 99.9 %
Track quality 100.0 %
Test CRC 1678852F
Copy CRC 1678852F
Accurately ripped (confidence 3) [53BB6792]
Copy OK
Track 9
Filename D:\Моя музыка\Новая папка\09 - Шумный праздник.wav
Pre-gap length 0:00:02.00
Peak level 99.9 %
Track quality 100.0 %
Test CRC 2F526AF5
Copy CRC 2F526AF5
Accurately ripped (confidence 3) [7BC0DDDB]
Copy OK
Track 10
Filename D:\Моя музыка\Новая папка\10 - Семь поцелуев.wav
Pre-gap length 0:00:02.00
Peak level 99.9 %
Track quality 100.0 %
Test CRC 1B5DE5B4
Copy CRC 1B5DE5B4
Accurately ripped (confidence 3) [11DD17EC]
Copy OK
All tracks accurately ripped
No errors occurred
End of status report
Пещерный город Inkerman (2006)
01. Тайна (5:41)
02. Пещерный город Инкерман (3:24)
03. Таял звук (4:17)
04. Винил (6:01)
05. Легкий бриз (3:48)
06. Красиво, хорошо (5:08)
07. Осенний лист (4:07)
08. В изгнании (4:00)
09. Океан (5:31)
10. Поезд в Барселону (3:56)
11. Комета (4:40)
Log EAC
Exact Audio Copy V0.99 prebeta 5 from 4. May 2009
Отчёт EAC об извлечении, выполненном 12. августа 2011, 20:38
Дидюля / Пещерный город Inkerman
Дисковод: ASUS DVD-E616A2 Adapter: 0 ID: 0
Режим чтения : Достоверность
Использование точного потока : Да
Отключение кэша аудио : Да
Использование указателей C2 : Нет
Коррекция смещения при чтении : 6
Способность читать области Lead-in и Lead-out : Нет
Заполнение пропущенных сэмплов тишиной : Да
Удаление блоков с тишиной в начале и конце : Нет
При вычислениях CRC использовались нулевые сэмплы : Да
Интерфейс : Встроенный Win32-интерфейс для Win NT/2000
Обработка зазоров : Добавлено к предыдущему треку
Выходной формат : Пользовательский кодировщик
Выбранный битрейт : 1024 kBit/s
Качество : Высокий
Добавление ID3-тэга : Нет
Утилита сжатия : C:\Program Files\FLAC\flac.exe
Дополнительные параметры : -8 -V -T "ARTIST=%a" -T "TITLE=%t" -T "ALBUM=%g" -T "DATE=%y" -T "TRACKNUMBER=%n" -T "GENRE=%m" -T "COMMENT=EAC FLAC -8" %s
TOC извлечённого CD
Трек | Старт | Длительность | Начальный сектор | Конечный сектор
---------------------------------------------------------------------
1 | 0:00.00 | 5:40.51 | 0 | 25550
2 | 5:40.51 | 3:23.46 | 25551 | 40821
3 | 9:04.22 | 4:16.52 | 40822 | 60073
4 | 13:20.74 | 6:00.65 | 60074 | 87138
5 | 19:21.64 | 3:48.00 | 87139 | 104238
6 | 23:09.64 | 5:07.46 | 104239 | 127309
7 | 28:17.35 | 4:06.46 | 127310 | 145805
8 | 32:24.06 | 3:59.45 | 145806 | 163775
9 | 36:23.51 | 5:31.07 | 163776 | 188607
10 | 41:54.58 | 3:56.00 | 188608 | 206307
11 | 45:50.58 | 4:40.24 | 206308 | 227331
12 | 53:03.07 | 5:47.12 | 238732 | 264768
Трек 1
Имя файла D:\Моя музыка\Новая папка\01 - Тайна.wav
Длина предзазора 0:00:02.00
Пиковый уровень 99.9 %
Качество трека 99.9 %
CRC теста C3135DC0
CRC копии C3135DC0
Трек не обнаружен в базе AccurateRip
Копирование... OK
Трек 2
Имя файла D:\Моя музыка\Новая папка\02 - Пещерный город Инкерман.wav
Пиковый уровень 99.9 %
Качество трека 100.0 %
CRC теста DE460C9F
CRC копии DE460C9F
Трек не обнаружен в базе AccurateRip
Копирование... OK
Трек 3
Имя файла D:\Моя музыка\Новая папка\03 - Таял звук.wav
Пиковый уровень 99.9 %
Качество трека 99.9 %
CRC теста 7870A364
CRC копии 7870A364
Трек не обнаружен в базе AccurateRip
Копирование... OK
Трек 4
Имя файла D:\Моя музыка\Новая папка\04 - Винил.wav
Пиковый уровень 99.9 %
Качество трека 100.0 %
CRC теста 4F512B75
CRC копии 4F512B75
Трек не обнаружен в базе AccurateRip
Копирование... OK
Трек 5
Имя файла D:\Моя музыка\Новая папка\05 - Легкий бриз.wav
Пиковый уровень 99.9 %
Качество трека 100.0 %
CRC теста 5A12772F
CRC копии 5A12772F
Трек не обнаружен в базе AccurateRip
Копирование... OK
Трек 6
Имя файла D:\Моя музыка\Новая папка\06 - Красиво, хорошо.wav
Пиковый уровень 99.9 %
Качество трека 100.0 %
CRC теста 3368EF54
CRC копии 3368EF54
Трек не обнаружен в базе AccurateRip
Копирование... OK
Трек 7
Имя файла D:\Моя музыка\Новая папка\07 - Осенний лист.wav
Пиковый уровень 99.9 %
Качество трека 100.0 %
CRC теста 76AF95E1
CRC копии 76AF95E1
Трек не обнаружен в базе AccurateRip
Копирование... OK
Трек 8
Имя файла D:\Моя музыка\Новая папка\08 - В изгнании.wav
Пиковый уровень 99.9 %
Качество трека 100.0 %
CRC теста AE130AB3
CRC копии AE130AB3
Трек не обнаружен в базе AccurateRip
Копирование... OK
Трек 9
Имя файла D:\Моя музыка\Новая папка\09 - Океан.wav
Пиковый уровень 99.9 %
Качество трека 100.0 %
CRC теста 15EDF1A6
CRC копии 15EDF1A6
Трек не обнаружен в базе AccurateRip
Копирование... OK
Трек 10
Имя файла D:\Моя музыка\Новая папка\10 - Поезд в Барселону.wav
Пиковый уровень 99.9 %
Качество трека 100.0 %
CRC теста 8D525EFC
CRC копии 8D525EFC
Трек не обнаружен в базе AccurateRip
Копирование... OK
Трек 11
Имя файла D:\Моя музыка\Новая папка\11 - Комета.wav
Пиковый уровень 99.9 %
Качество трека 100.0 %
CRC теста 060C4D83
CRC копии 060C4D83
Трек не обнаружен в базе AccurateRip
Копирование... OK
Ни одного трека нет в базе AccurateRip
Ошибок не произошло
Конец отчёта
Музыка неснятого кино (2007)
01. Alegria (3:13)
02. Огонь, вода и медные трубы (4:18)
03. Время людей (4:41)
04. Полёт на воздушном шаре (4:42)
05. Путь воина (5:41)
06. Место отмечено крестом (3:35)
07. Мой город тайн (4:23)
08. Священная красота (6:15)
09. Сказки старого леса (6:08)
10. Вечный странник (5:02)
11. Январь. На небе звезда (3:18)
12. На Рождество (3:13)
13. Золотое свечение (5:28)
Log EAC
Exact Audio Copy V0.99 prebeta 5 from 4. May 2009
EAC extraction logfile from 6. September 2011, 12:33
ДиДюЛя / Музыка неснятого кино
Used drive : ASUS DVD-E616A2 Adapter: 0 ID: 0
Read mode : Secure
Utilize accurate stream : Yes
Defeat audio cache : Yes
Make use of C2 pointers : No
Read offset correction : 6
Overread into Lead-In and Lead-Out : No
Fill up missing offset samples with silence : Yes
Delete leading and trailing silent blocks : No
Null samples used in CRC calculations : Yes
Used interface : Native Win32 interface for Win NT & 2000
Gap handling : Appended to previous track
Used output format : User Defined Encoder
Selected bitrate : 1024 kBit/s
Quality : High
Add ID3 tag : No
Command line compressor : C:\Program Files\FLAC\flac.exe
Additional command line options : -8 -V -T "ARTIST=%a" -T "TITLE=%t" -T "ALBUM=%g" -T "DATE=%y" -T "TRACKNUMBER=%n" -T "GENRE=%m" -T "COMMENT=EAC FLAC -8" %s
TOC of the extracted CD
Track | Start | Length | Start sector | End sector
---------------------------------------------------------
1 | 0:00.00 | 3:13.14 | 0 | 14488
2 | 3:13.14 | 4:17.41 | 14489 | 33804
3 | 7:30.55 | 4:41.36 | 33805 | 54915
4 | 12:12.16 | 4:41.44 | 54916 | 76034
5 | 16:53.60 | 5:41.34 | 76035 | 101643
6 | 22:35.19 | 3:34.61 | 101644 | 117754
7 | 26:10.05 | 4:23.28 | 117755 | 137507
8 | 30:33.33 | 6:15.06 | 137508 | 165638
9 | 36:48.39 | 6:08.32 | 165639 | 193270
10 | 42:56.71 | 5:01.73 | 193271 | 215918
11 | 47:58.69 | 3:17.65 | 215919 | 230758
12 | 51:16.59 | 3:13.25 | 230759 | 245258
13 | 54:30.09 | 5:27.51 | 245259 | 269834
14 | 62:29.60 | 9:58.32 | 281235 | 326116
Track 1
Filename D:\Моя музыка\Новая папка\01 - Alegria.wav
Pre-gap length 0:00:02.00
Peak level 97.9 %
Track quality 100.0 %
Test CRC 0F7B2000
Copy CRC 0F7B2000
Accurately ripped (confidence 2) [BB40C5A5]
Copy OK
Track 2
Filename D:\Моя музыка\Новая папка\02 - Огонь, вода и медные трубы.wav
Peak level 97.9 %
Track quality 100.0 %
Test CRC DB12A38E
Copy CRC DB12A38E
Accurately ripped (confidence 2) [552A8D5C]
Copy OK
Track 3
Filename D:\Моя музыка\Новая папка\03 - Время людей.wav
Peak level 97.9 %
Track quality 100.0 %
Test CRC E97ED386
Copy CRC E97ED386
Accurately ripped (confidence 2) [417D8927]
Copy OK
Track 4
Filename D:\Моя музыка\Новая папка\04 - Полёт на воздушном шаре.wav
Peak level 89.1 %
Track quality 99.9 %
Test CRC E14C285B
Copy CRC E14C285B
Accurately ripped (confidence 2) [79ACD1A9]
Copy OK
Track 5
Filename D:\Моя музыка\Новая папка\05 - Путь воина.wav
Peak level 97.9 %
Track quality 100.0 %
Test CRC CB86EAC8
Copy CRC CB86EAC8
Cannot be verified as accurate (confidence 2) [E9EF5782], AccurateRip returned [5D0E683A]
Copy OK
Track 6
Filename D:\Моя музыка\Новая папка\06 - Место отмечено крестом.wav
Peak level 97.9 %
Track quality 100.0 %
Test CRC 87FFA833
Copy CRC 87FFA833
Accurately ripped (confidence 2) [7BC020A3]
Copy OK
Track 7
Filename D:\Моя музыка\Новая папка\07 - Мой город тайн.wav
Peak level 97.9 %
Track quality 100.0 %
Test CRC B08CD9FD
Copy CRC B08CD9FD
Cannot be verified as accurate (confidence 2) [9DD6AACF], AccurateRip returned [8E960CC7]
Copy OK
Track 8
Filename D:\Моя музыка\Новая папка\08 - Священная красота.wav
Peak level 97.9 %
Track quality 100.0 %
Test CRC C582A7C8
Copy CRC C582A7C8
Cannot be verified as accurate (confidence 2) [B1AF018B], AccurateRip returned [F3395A2B]
Copy OK
Track 9
Filename D:\Моя музыка\Новая папка\09 - Сказки старого леса.wav
Peak level 97.9 %
Track quality 100.0 %
Test CRC D4755B4D
Copy CRC D4755B4D
Cannot be verified as accurate (confidence 2) [9A87B6AA], AccurateRip returned [81A6CB8A]
Copy OK
Track 10
Filename D:\Моя музыка\Новая папка\10 - Вечный странник.wav
Peak level 97.9 %
Track quality 100.0 %
Test CRC F8617908
Copy CRC F8617908
Accurately ripped (confidence 2) [A371D301]
Copy OK
Track 11
Filename D:\Моя музыка\Новая папка\11 - Январь. На небе звезда.wav
Peak level 97.9 %
Track quality 100.0 %
Test CRC CAC0E1CD
Copy CRC CAC0E1CD
Cannot be verified as accurate (confidence 2) [504D2F68], AccurateRip returned [9DE6DDC8]
Copy OK
Track 12
Filename D:\Моя музыка\Новая папка\12 - На Рождество.wav
Peak level 97.9 %
Track quality 100.0 %
Test CRC A84D3D2C
Copy CRC A84D3D2C
Cannot be verified as accurate (confidence 2) [E18A8F67], AccurateRip returned [F679E5C7]
Copy OK
Track 13
Filename D:\Моя музыка\Новая папка\13 - Золотое свечение.wav
Peak level 97.9 %
Track quality 100.0 %
Test CRC BAC51EB3
Copy CRC BAC51EB3
Track not present in AccurateRip database
Copy OK
6 track(s) accurately ripped
6 track(s) could not be verified as accurate
1 track(s) not present in the AccurateRip database
Some tracks could not be verified as accurate
No errors occurred
End of status report
Аромат (2010)
01. Один день в сентябре (4:02)
02. Торо-ко-ко, пэк-пэк (2:59)
03. Воздушный змей (3:38)
04. Прогулка (3:40)
05. Мерцает звук (2:40)
06. После дождя (6:12)
07. Затерянный грот (3:25)
08. Кольца времени (4:48)
09. На рассвете (3:49)
10. Прощай поверхность! (3:54)
11. Аромат (3:33)
Log EAC
Exact Audio Copy V0.99 prebeta 5 from 4. May 2009
EAC extraction logfile from 4. September 2011, 12:01
ДиДюЛя / Аромат
Used drive : ASUS DVD-E616A2 Adapter: 0 ID: 0
Read mode : Secure
Utilize accurate stream : Yes
Defeat audio cache : Yes
Make use of C2 pointers : No
Read offset correction : 6
Overread into Lead-In and Lead-Out : No
Fill up missing offset samples with silence : Yes
Delete leading and trailing silent blocks : No
Null samples used in CRC calculations : Yes
Used interface : Native Win32 interface for Win NT & 2000
Gap handling : Appended to previous track
Used output format : User Defined Encoder
Selected bitrate : 1024 kBit/s
Quality : High
Add ID3 tag : No
Command line compressor : C:\Program Files\FLAC\flac.exe
Additional command line options : -8 -V -T "ARTIST=%a" -T "TITLE=%t" -T "ALBUM=%g" -T "DATE=%y" -T "TRACKNUMBER=%n" -T "GENRE=%m" -T "COMMENT=EAC FLAC -8" %s
TOC of the extracted CD
Track | Start | Length | Start sector | End sector
---------------------------------------------------------
1 | 0:00.00 | 4:01.67 | 0 | 18141
2 | 4:01.67 | 2:59.23 | 18142 | 31589
3 | 7:01.15 | 3:37.50 | 31590 | 47914
4 | 10:38.65 | 3:40.32 | 47915 | 64446
5 | 14:19.22 | 2:40.28 | 64447 | 76474
6 | 16:59.50 | 6:11.49 | 76475 | 104348
7 | 23:11.24 | 3:24.56 | 104349 | 119704
8 | 26:36.05 | 4:47.44 | 119705 | 141273
9 | 31:23.49 | 3:49.32 | 141274 | 158480
10 | 35:13.06 | 3:54.33 | 158481 | 176063
11 | 39:07.39 | 3:33.25 | 176064 | 192063
Track 1
Filename D:\Моя музыка\Новая папка\01 - Один день в сентябре.wav
Pre-gap length 0:00:02.00
Peak level 89.1 %
Track quality 100.0 %
Test CRC EF4C2C8E
Copy CRC EF4C2C8E
Track not present in AccurateRip database
Copy OK
Track 2
Filename D:\Моя музыка\Новая папка\02 - Торо-ко-ко, пэк-пэк.wav
Peak level 100.0 %
Track quality 99.9 %
Test CRC 5A1869B9
Copy CRC 5A1869B9
Track not present in AccurateRip database
Copy OK
Track 3
Filename D:\Моя музыка\Новая папка\03 - Воздушный змей.wav
Peak level 100.0 %
Track quality 100.0 %
Test CRC D2E3ACE1
Copy CRC D2E3ACE1
Track not present in AccurateRip database
Copy OK
Track 4
Filename D:\Моя музыка\Новая папка\04 - Прогулка.wav
Peak level 100.0 %
Track quality 100.0 %
Test CRC 609C2A81
Copy CRC 609C2A81
Track not present in AccurateRip database
Copy OK
Track 5
Filename D:\Моя музыка\Новая папка\05 - Мерцает звук.wav
Peak level 79.4 %
Track quality 99.9 %
Test CRC 20317789
Copy CRC 20317789
Track not present in AccurateRip database
Copy OK
Track 6
Filename D:\Моя музыка\Новая папка\06 - После дождя.wav
Peak level 89.1 %
Track quality 100.0 %
Test CRC A428686A
Copy CRC A428686A
Track not present in AccurateRip database
Copy OK
Track 7
Filename D:\Моя музыка\Новая папка\07 - Затерянный грот.wav
Peak level 100.0 %
Track quality 100.0 %
Test CRC 86426DC8
Copy CRC 86426DC8
Track not present in AccurateRip database
Copy OK
Track 8
Filename D:\Моя музыка\Новая папка\08 - Кольца времени.wav
Peak level 100.0 %
Track quality 100.0 %
Test CRC 926EA6C2
Copy CRC 926EA6C2
Track not present in AccurateRip database
Copy OK
Track 9
Filename D:\Моя музыка\Новая папка\09 - На рассвете.wav
Peak level 100.0 %
Track quality 100.0 %
Test CRC DC7FEA71
Copy CRC DC7FEA71
Track not present in AccurateRip database
Copy OK
Track 10
Filename D:\Моя музыка\Новая папка\10 - Прощай поверхность!.wav
Peak level 100.0 %
Track quality 99.9 %
Test CRC 850CCD9D
Copy CRC 850CCD9D
Track not present in AccurateRip database
Copy OK
Track 11
Filename D:\Моя музыка\Новая папка\11 - Аромат.wav
Peak level 89.1 %
Track quality 100.0 %
Test CRC 543DA59C
Copy CRC 543DA59C
Track not present in AccurateRip database
Copy OK
None of the tracks are present in the AccurateRip database
No errors occurred
End of status report
Орнаментальный (2012)
01. Греческая (3:24)
02. Сербская (2:35)
03. Арабское танго (3:34)
04. Алегрия в танце (3:36)
05. Шапито (3:47)
06. Игрушечный злодей (3:32)
07. Линия огня (4:07)
08. Базара нет (4:23)
09. Вольный ветер (4:05)
10. Охота на волка (3:18)
11. Линия огня (минус) (4:07)
Log EAC
Exact Audio Copy V1.0 beta 3 from 29. August 2011
EAC extraction logfile from 4. March 2013, 19:43
ДиДюЛя / Орнаментальный
Used drive : ASUS DRW-24B5ST Adapter: 0 ID: 0
Read mode : Secure
Utilize accurate stream : Yes
Defeat audio cache : Yes
Make use of C2 pointers : No
Read offset correction : 6
Overread into Lead-In and Lead-Out : No
Fill up missing offset samples with silence : Yes
Delete leading and trailing silent blocks : No
Null samples used in CRC calculations : Yes
Used interface : Native Win32 interface for Win NT & 2000
Gap handling : Appended to previous track
Used output format : User Defined Encoder
Selected bitrate : 1024 kBit/s
Quality : High
Add ID3 tag : No
Command line compressor : C:\Program Files\Exact Audio Copy\Flac\flac.exe
Additional command line options : -V -8 -T "Genre=%genre%" -T "Artist=%artist%" -T "Title=%title%" -T "Album=%albumtitle%" -T "Date=%year%" -T "Tracknumber=%tracknr%" -T "Comment=EAC1.0b3 FLAC -8" %source%
TOC of the extracted CD
Track | Start | Length | Start sector | End sector
---------------------------------------------------------
1 | 0:00.00 | 3:23.52 | 0 | 15276
2 | 3:23.52 | 2:35.18 | 15277 | 26919
3 | 5:58.70 | 3:33.47 | 26920 | 42941
4 | 9:32.42 | 3:36.26 | 42942 | 59167
5 | 13:08.68 | 3:46.71 | 59168 | 76188
6 | 16:55.64 | 3:32.25 | 76189 | 92113
7 | 20:28.14 | 4:06.67 | 92114 | 110630
8 | 24:35.06 | 4:23.34 | 110631 | 130389
9 | 28:58.40 | 4:05.37 | 130390 | 148801
10 | 33:04.02 | 3:18.00 | 148802 | 163651
11 | 36:22.02 | 4:06.54 | 163652 | 182155
Track 1
Filename C:\EAC\01 Греческая.wav
Pre-gap length 0:00:02.00
Peak level 100.0 %
Extraction speed 4.9 X
Track quality 100.0 %
Test CRC 04BB8D67
Copy CRC 04BB8D67
Track not present in AccurateRip database
Copy OK
Track 2
Filename C:\EAC\02 Сербская.wav
Peak level 100.0 %
Extraction speed 5.0 X
Track quality 100.0 %
Test CRC F1D1789D
Copy CRC F1D1789D
Track not present in AccurateRip database
Copy OK
Track 3
Filename C:\EAC\03 Арабское танго.wav
Peak level 100.0 %
Extraction speed 5.7 X
Track quality 100.0 %
Test CRC DEBDCCB7
Copy CRC DEBDCCB7
Track not present in AccurateRip database
Copy OK
Track 4
Filename C:\EAC\04 Алегрия в танце.wav
Peak level 100.0 %
Extraction speed 6.2 X
Track quality 100.0 %
Test CRC F7F2A794
Copy CRC F7F2A794
Track not present in AccurateRip database
Copy OK
Track 5
Filename C:\EAC\05 Шапито.wav
Peak level 100.0 %
Extraction speed 6.6 X
Track quality 100.0 %
Test CRC 4F08F7EA
Copy CRC 4F08F7EA
Track not present in AccurateRip database
Copy OK
Track 6
Filename C:\EAC\06 Игрушечный злодей.wav
Peak level 100.0 %
Extraction speed 7.0 X
Track quality 100.0 %
Test CRC 4943439E
Copy CRC 4943439E
Track not present in AccurateRip database
Copy OK
Track 7
Filename C:\EAC\07 Линия огня.wav
Peak level 100.0 %
Extraction speed 7.4 X
Track quality 100.0 %
Test CRC 2AA539AC
Copy CRC 2AA539AC
Track not present in AccurateRip database
Copy OK
Track 8
Filename C:\EAC\08 Базара нет.wav
Peak level 100.0 %
Extraction speed 8.0 X
Track quality 100.0 %
Test CRC B2F2ED78
Copy CRC B2F2ED78
Track not present in AccurateRip database
Copy OK
Track 9
Filename C:\EAC\09 Вольный ветер.wav
Peak level 100.0 %
Extraction speed 8.3 X
Track quality 100.0 %
Test CRC 782FEC81
Copy CRC 782FEC81
Track not present in AccurateRip database
Copy OK
Track 10
Filename C:\EAC\10 Охота на волка.wav
Peak level 100.0 %
Extraction speed 8.3 X
Track quality 100.0 %
Test CRC 5D5280F6
Copy CRC 5D5280F6
Track not present in AccurateRip database
Copy OK
Track 11
Filename C:\EAC\11 Линия огня (минус).wav
Peak level 100.0 %
Extraction speed 8.8 X
Track quality 100.0 %
Test CRC 208468CD
Copy CRC 208468CD
Track not present in AccurateRip database
Copy OK
None of the tracks are present in the AccurateRip database
No errors occurred
End of status report
---- CUETools DB Plugin V2.1.3
[CTDB TOCID: TWOfg8vQK5YdwbGxwEkuHKBrZ3w-] found, Submit result: TWOfg8vQK5YdwbGxwEkuHKBrZ3w- has been confirmed
[a7beb627] (2/2) Accurately ripped
==== Log checksum 0B1D0551EAA60A7E9A106EF0F7E09EFBFCE60E2E7D8BC713D0E9FD9429097809 ====
Однажды Сегодня (2013)
01. Мечта (версия 2013)
02. Охота на волка (акустическая версия)
03. Колыбельная (акустическая версия)
04. Ханг
05. На рассвете (акустическая версия)
06. По ту сторону дождя
07. Воскресение
08. Семь поцелуев (фортепианная версия)
09. Письмо без ответа (акустическая версия)
10. Легенда (фортепианная версия)
11. Музыка солнца
Log EAC
Exact Audio Copy V1.0 beta 3 from 29. August 2011
Отчёт EAC об извлечении, выполненном 14. февраля 2014, 19:55
ДиДюЛя / Однажды Сегодня
Дисковод: ASUS DRW-24F1ST a Adapter: 0 ID: 0
Режим чтения : Достоверность
Использование точного потока : Да
Отключение кэша аудио : Да
Использование указателей C2 : Нет
Коррекция смещения при чтении : 6
Способность читать области Lead-in и Lead-out : Нет
Заполнение пропущенных сэмплов тишиной : Да
Удаление блоков с тишиной в начале и конце : Нет
При вычислениях CRC использовались нулевые сэмплы : Да
Интерфейс : Установленный внешний ASPI-интерфейс
Выходной формат : Внутренние WAV-операции
Формат сэмплов : 44.100 Гц; 16 бит; стерео
TOC извлечённого CD
Трек | Старт | Длительность | Начальный сектор | Конечный сектор
---------------------------------------------------------------------
1 | 0:00.00 | 5:11.00 | 0 | 23324
2 | 5:11.00 | 4:03.09 | 23325 | 41558
3 | 9:14.09 | 4:21.09 | 41559 | 61142
4 | 13:35.18 | 4:12.37 | 61143 | 80079
5 | 17:47.55 | 8:05.09 | 80080 | 116463
6 | 25:52.64 | 4:52.18 | 116464 | 138381
7 | 30:45.07 | 4:19.18 | 138382 | 157824
8 | 35:04.25 | 4:37.09 | 157825 | 178608
9 | 39:41.34 | 5:23.00 | 178609 | 202833
10 | 45:04.34 | 4:02.65 | 202834 | 221048
11 | 49:07.24 | 14:33.37 | 221049 | 286560
Характеристики диапазона извлечения и сообщения об ошибках
Выбранный диапазон
Имя файла D:\ХРАНИЛИЩЕ\AUDIO\LOSSLESS\Дидюля\Однажды Сегодня\ДиДюЛя - Однажды Сегодня.wav
Пиковый уровень 100.0 %
Скорость извлечения 3.0 X
Качество диапазона 100.0 %
CRC теста FA9088AB
CRC копии FA9088AB
Копирование... OK
Ошибок не произошло
AccurateRip: сводка
Трек 1 отсутствует в базе данных
Трек 2 отсутствует в базе данных
Трек 3 отсутствует в базе данных
Трек 4 отсутствует в базе данных
Трек 5 отсутствует в базе данных
Трек 6 отсутствует в базе данных
Трек 7 отсутствует в базе данных
Трек 8 отсутствует в базе данных
Трек 9 отсутствует в базе данных
Трек 10 отсутствует в базе данных
Трек 11 отсутствует в базе данных
Ни одного трека нет в базе AccurateRip
Конец отчёта
==== Контрольная сумма отчёта 6338A0F678538B407391100E16F77C9D71FD392D61F219FE8FEC314A4904AC9B ====
--Всем Спасибо за "Спасибо" и приятного прослушивания!!!
[Профиль] [ЛС]

Cyzarine

Пол: Не указан

Стаж: 17 дней

Сообщений: 3

Создавать темы 08-Май-2017 21:22 (спустя 2 года)

[Цитировать]


merci
[Профиль] [ЛС]

Cyzarine

Пол: Не указан

Стаж: 17 дней

Сообщений: 3

Создавать темы 08-Май-2017 21:23 (спустя 44 секунды)

[Цитировать]

merci
[Профиль] [ЛС]

Cyzarine

Пол: Не указан

Стаж: 17 дней

Сообщений: 3

Создавать темы 08-Май-2017 21:24 (спустя 38 секунд)

[Цитировать]

2326905
merci
[Профиль] [ЛС]
Показать сообщения:    
Ответить на тему

Текущее время: 26-Май 12:23

Часовой пояс: UTC + 3



Вы не можете начинать темы
Вы не можете отвечать на сообщения
Вы не можете редактировать свои сообщения
Вы не можете удалять свои сообщения
Вы не можете голосовать в опросах
Вы не можете прикреплять файлы к сообщениям
Вы не можете скачивать файлы