Босс-молокосос / The Boss Baby

Страна: США
Жанр: Мультипликация
Продолжительность: 01:37:53
Год выпуска: 2017
Перевод: Профессиональный (дублированный) [iTunes]
Русские субтитры: нет
Режиссёр: Том МакГрат / Tom McGrath

Роли озвучивали: Майлз Кристофер Бакши, Алек Болдуин, Эрик Белл мл., Стив Бушеми, Джимми Киммел, Лиза Кудроу, Тоби Магуайр, ВивиЭнн Йи

Описание: Эта актуальная во все времена история для взрослых и детей рассказывается от лица семилетнего брата новорожденного — фантазера Тима, который ревнует его к родителям. Но главный герой — совсем не простой ребенок, он обладает лидерскими задатками, уже носит деловые костюмы и во всем видит бизнес-задачу.
Однажды Тим узнает о готовящемся заговоре, целью которого является уничтожение любви в мире, и организовал его директор компании Puppy Co. Но одному Тиму не по силам его остановить. Мальчику предстоит объединиться со своим «нелюбимым» братом, чтобы спасти родителей и вернуть порядок на Земле.

Рейтинг MPAA: PG (рекомендуется присутствие родителей)
Дата мировой премьеры: 12 марта 2017
Дата российской премьеры: 23 марта 2017, «Двадцатый Век Фокс СНГ»



Качество: WEB-DL 1080p
Формат: MKV
Видео: AVC, 1916x812 (2.35:1), 23.976 fps, 4 386 Kbps (0.118 bit/pixel)
Аудио 1: AC-3, 48.0 KHz, 6 ch, 384 Kbps, CBR (Russian)
Аудио 2: AC-3, 48.0 KHz, 6 ch, 384 Kbps, CBR (English)
Субтитры: English

MI
Видео
Идентификатор : 1
Формат : AVC
Формат/Информация : Advanced Video Codec
Профиль формата : High@L4
Параметр CABAC формата : Да
Параметр ReFrames формата : 5 кадров
Идентификатор кодека : V_MPEG4/ISO/AVC
Продолжительность : 1 ч. 37 м.
Битрейт : 4387 Кбит/сек
Ширина : 1916 пикселей
Высота : 812 пикселей
Соотношение сторон : 2,35:1
Режим частоты кадров : Постоянный
Частота кадров : 23,976 кадра/сек
Цветовое пространство : YUV
Субдискретизация насыщенности : 4:2:0
Битовая глубина : 8 бит
Тип развёртки : Прогрессивная
Бит/(Пиксели*Кадры) : 0.118
Размер потока : 3,00 Гбайт (83%)
Язык : English
Default : Да
Forced : Нет
Цветовой диапазон : Limited
Основные цвета : BT.709
Характеристики трансфера : BT.709
Коэффициенты матрицы : BT.709
Аудио #1
Идентификатор : 2
Формат : AC-3
Формат/Информация : Audio Coding 3
Расширение режима : CM (complete main)
Параметр Endianness формата : Big
Идентификатор кодека : A_AC3
Продолжительность : 1 ч. 37 м.
Вид битрейта : Постоянный
Битрейт : 384 Кбит/сек
Каналы : 6 каналов
Расположение каналов : Front: L C R, Side: L R, LFE
Частота : 48,0 КГц
Метод сжатия : С потерями
Размер потока : 269 Мбайт (7%)
Заголовок : iTunes
Язык : Russian
Default : Да
Forced : Нет
Аудио #2
Идентификатор : 3
Формат : AC-3
Формат/Информация : Audio Coding 3
Расширение режима : CM (complete main)
Параметр Endianness формата : Big
Идентификатор кодека : A_AC3
Продолжительность : 1 ч. 37 м.
Вид битрейта : Постоянный
Битрейт : 384 Кбит/сек
Каналы : 6 каналов
Расположение каналов : Front: L C R, Side: L R, LFE
Частота : 48,0 КГц
Метод сжатия : С потерями
Размер потока : 269 Мбайт (7%)
Заголовок : ORIGINAL
Язык : English
Default : Нет
Forced : Нет
Текст #1
Идентификатор : 4
Формат : UTF-8
Идентификатор кодека : S_TEXT/UTF8
Идентификатор кодека/Информация : UTF-8 Plain Text
Заголовок : Forced
Язык : Russian
Default : Да
Forced : Да
Текст #2
Идентификатор : 5
Формат : UTF-8
Идентификатор кодека : S_TEXT/UTF8
Идентификатор кодека/Информация : UTF-8 Plain Text
Заголовок : Forced
Язык : English
Default : Нет
Forced : Нет
Текст #3
Идентификатор : 6
Формат : UTF-8
Идентификатор кодека : S_TEXT/UTF8
Идентификатор кодека/Информация : UTF-8 Plain Text
Заголовок : Full
Язык : Russian
Default : Нет
Forced : Нет
Текст #4
Идентификатор : 7
Формат : UTF-8
Идентификатор кодека : S_TEXT/UTF8
Идентификатор кодека/Информация : UTF-8 Plain Text
Заголовок : Full
Язык : Ukrainian
Default : Нет
Forced : Нет
Текст #5
Идентификатор : 8
Формат : UTF-8
Идентификатор кодека : S_TEXT/UTF8
Идентификатор кодека/Информация : UTF-8 Plain Text
Заголовок : Full
Язык : English
Default : Нет
Forced : Нет
Меню
00:00:00.000 : en:1
00:03:44.891 : en:2
00:08:57.286 : en:3
00:11:44.911 : en:4
00:14:58.562 : en:5
00:19:37.215 : en:6
00:22:51.784 : en:7
00:28:26.243 : en:8
00:30:25.111 : en:9
00:33:44.477 : en:10
00:36:56.252 : en:11
00:39:17.351 : en:12
00:42:34.339 : en:13
00:46:19.605 : en:14
00:51:36.713 : en:15
00:53:24.278 : en:16
00:56:27.711 : en:17
00:59:34.397 : en:18
01:04:02.164 : en:19
01:08:14.749 : en:20
01:11:28.901 : en:21
01:16:24.238 : en:22
01:23:09.101 : en:23
01:27:35.951 : en:24
Скриншоты